ML
     
  Уважаемый Гость!
Вы можете поддержать проект и зарегистрироваться у наших партнеров - онлайн-стратегия MyLands. При регистрации в игре Вы получите код, который сможете активировать после регистрации на pirat.ca и получить 1000 дублонов.

Ваш код:
ba41f7961e0b4717aed6a401d955262223b8f6c4
 
     

Смурфики. Рождественнский гимн / The Smurfs. A Christmas Carol (Трой Квон / Troy Kwon) [2011 г., мультфильм, DVDRip] (VO)

Ответить на тему
 
Автор
Сообщение

Пост 28-Ноя-2011 22:05

[Q] 

Moln1a

Корсар

Смурфики. Рождественнский гимн / The Smurfs. A Christmas Carol
Год выпуска: 2011
Производство: США
Жанр: мультфильм
Продолжительность: 00:22:36
Перевод: Любительский (одноголосый)
Режиссер: Трой Квон / Troy Kwon
В ролях: Джек Эйнджел, Фред Армизен, Хэнк Азария, Гэри Басараба, Джордж Лопез, Мелисса Штурм, Антон Ельчин
Описание: Перед нами история Ворчуна. Зима, Рождество, Ёлка. Он же обычно надевает на её верхушку яркую звезду. Пироги. Подарки. Но Ворчун ворчит по любому поводу: «Ненавижу то, ненавижу это, ненавижу ёлку, ненавижу пирог!» Больше всего его задевают подарки — каждый год, уже несколько сот лет, ему (как и всем остальным Смурфам) дарят шапочки: одинаковые, ничем не отличающиеся друг от друга. А он хотел … полетать.
Сэмпл,
Источник/Качество: DVDRip
Формат: AVI
Видео кодек: XviD
Аудио кодек: MP3
Видео: XviD, 640x352, 23 fps, ~2043 Kbit/s
Аудио: МР3, 48000 Hz, 2 канала, 128 kbit/s
Формат : AVI
Формат/Информация : Audio Video Interleave
Размер файла : 351 Мбайт
Продолжительность : 22 м.
Общий поток : 2171 Кбит/сек
Программа кодирования : VirtualDubMod 1.5.10.3 | www.virtualdub-fr.org || (build 2550/release)
Библиотека кодирования : VirtualDubMod build 2550/release
Видео
Идентификатор : 0
Формат : MPEG-4 Visual
Профиль формата : [email protected]
Параметр BVOP формата : Нет
Параметр QPel формата : Нет
Параметр GMC формата : Без точки перехода
Параметр матрицы формата : Default (H.263)
Идентификатор кодека : XVID
Идентификатор кодека/Подсказка : XviD
Продолжительность : 22 м.
Битрейт : 1949 Кбит/сек
Ширина : 640 пикс.
Высота : 352 пикс.
Соотношение сторон : 16:9
Частота кадров : 23,976 кадр/сек
Цветовое пространство : YUV
Подвыборка цветности : 4:2:0
Битовая глубина : 8 бит
Тип развёртки : Прогрессивная
Метод сжатия : С потерями
Бит/(Пиксели*Кадры) : 0.361
Размер потока : 315 Мбайт (90%)
Библиотека кодирования : XviD 1.1.2 (UTC 2006-11-01)
Аудио
Идентификатор : 1
Формат : MPEG Audio
Версия формата : Version 1
Профиль формата : Layer 3
Режим : Joint stereo
Расширение режима : MS Stereo
Идентификатор кодека : 55
Идентификатор кодека/Подсказка : MP3
Продолжительность : 22 м.
Вид битрейта : Постоянный
Битрейт : 128 Кбит/сек
Каналы : 2 канала
Частота : 48,0 КГц
Метод сжатия : С потерями
Размер потока : 20,7 Мбайт (6%)
Выравнивание : Соединение по промежуткам


Download / Скачать

Хотите скачать бесплатно? Зарегистрируйтесь на сайте (ссылка на регистрацию). Pirat.ca - самый быстрый торрент трекер в рунете!

Как скачивать  ·   Что такое торрент  ·   Рейтинг и ограничения

Пост 28-Ноя-2011 22:45 (спустя 40 минут)

Топик был перенесен из форума Мультипликация в форум Новинки (HD|DVD|BD|TV|SAT|PDTV| - Rips)

zyyx
 

dimonpa

Гроза морей

Пост 29-Ноя-2011 05:14 (спустя 7 часов)

[Q] 

спасибо
[Профиль]  [ЛС] 
Показать сообщения:    
Ответить на тему

Текущее время: Сегодня 14:45

Часовой пояс: GMT + 4



Вы не можете начинать темы
Вы не можете отвечать на сообщения
Вы не можете редактировать свои сообщения
Вы не можете удалять свои сообщения
Вы не можете голосовать в опросах
Вы не можете прикреплять файлы к сообщениям
Вы не можете скачивать файлы

▼ Вниз