ML
     
  Уважаемый Гость!
Вы можете поддержать проект и зарегистрироваться у наших партнеров - онлайн-стратегия MyLands. При регистрации в игре Вы получите код, который сможете активировать после регистрации на pirat.ca и получить 1000 дублонов.

Ваш код:
0fcd44bd35319f69313aa6e53b31c51cbff1c942
 
     

Титан: после гибели Земли / Titan A. E. (Дон Блат, Гари Голдман / Don Bluth, Gary Goldman) [2000 г., фантастика, боевик, приключения, семейный, DVDRip] (Dub)

Ответить на тему
 
Автор
Сообщение

Пост 29-Ноя-2011 19:29

[Q] 

Sirota

Легенда

Титан: после гибели Земли / Titan A. E. Год выпуска: 2000
Мировая премьера: 13 июня 2000
Российская премьера: 22 августа 2000
Дата выхода DVD: 26 января 2010, «Флагман-Трейд»
Производство: США
Жанр: фантастика, боевик, приключения, семейный
Продолжительность: 01:31:07
Перевод: профессиональный (полное дублирование) лицензия
Автор(ы) перевода: Сергей Быстрицкий, Александр Клюквин, Дмитрий Филимонов, Никита Прозоровский, Элеонора Прохницкая
Режиссер: Дон Блат, Гари Голдман / Don Bluth, Gary Goldman
В ролях: Мэтт Дэймон
Билл Пуллман
Джон Легуизамо
Натан Лейн
Джанин Гарофало
Дрю Бэрримор
Рон Перлман
Алекс Д. Линц
Тоун Лок
Джим Брюэр
Описание: В 3028 году Дреджи — агрессивная инопланетная раса уничтожила Землю. Пятнадцать лет спустя — юный Кейл узнает, что он владеет генетически запрограммированной картой на Титан — космический супер-корабль, в котором заключен секрет спасения человечества.
Кейлу предстоит полное опасностей путешествие через вселенную в составе команды космического корабля «Валькирия», сражения со злыми Дреджами, и восстановление Титана — последней надежды всего человечества.
Доп. информация: сценарий Бен Эдлунд, Джон Огаст, Джосс Уидон,
продюсер Дон Блут, Гари Голдман, Дэвид Киршнер,
композитор Грэм Ревелл, Тим Саймонек
художник Филип А. Круден, Кеннет Валентайн Слевин, Ким Баррет
монтаж Боб Бендер, Пол Мартин Смит, Фиона Трэйлер
бюджет $75 000 000
сборы в США $22 753 426
сборы в мире + $14 001 208 = $36 754 634

IMDB, КиноПоиск
Источник/Качество: DVDRip
Формат: AVI
Видео кодек: XviD
Аудио кодек: MP3
Видео: 720x304 (2.37:1), 25 fps, XviD build 47 ~2009 kbps avg, 0.37 bit/pixel
Аудио: 48 kHz, MPEG Layer 3, 2 ch, ~128.00 kbps avg
Субтитры: нет
Сатурн, 2001 год
Номинации (1):
Лучший научно-фантастический фильм
General
Format : AVI
Format/Info : Audio Video Interleave
File size : 1.37 GiB
Duration : 1h 31mn
Overall bit rate : 2 145 Kbps
Writing application : VirtualDubMod 1.5.4.1 (build 2178/release)
Writing library : VirtualDubMod build 2178/release
Video #0
ID : 0
Format : MPEG-4 Visual
Format profile : [email protected]
Format settings, BVOP : Yes
Format settings, QPel : No
Format settings, GMC : No warppoints
Format settings, Matrix : Custom
Codec ID : XVID
Codec ID/Hint : XviD
Duration : 1h 31mn
Bit rate : 2 010 Kbps
Width : 720 pixels
Height : 304 pixels
Display aspect ratio : 2.35:1
Frame rate : 25.000 fps
Resolution : 24 bits
Colorimetry : 4:2:0
Scan type : Progressive
Bits/(Pixel*Frame) : 0.367
Stream size : 1.28 GiB (94%)
Writing library : XviD 1.2.0.dev47 (UTC 2006-11-01)
Audio #1
ID : 1
Format : MPEG Audio
Format version : Version 1
Format profile : Layer 3
Codec ID : 55
Codec ID/Hint : MP3
Duration : 1h 31mn
Bit rate mode : Constant
Bit rate : 128 Kbps
Channel(s) : 2 channels
Sampling rate : 48.0 KHz
Resolution : 16 bits
Stream size : 83.4 MiB (6%)
Alignment : Aligned on interleaves
Interleave, duration : 80 ms (2.00 video frames)
Interleave, preload duration : 504 ms
-
-Релиз подготовлен:

-
-
Download / Скачать

Хотите скачать бесплатно? Зарегистрируйтесь на сайте (ссылка на регистрацию). Pirat.ca - самый быстрый торрент трекер в рунете!

Как скачивать  ·   Что такое торрент  ·   Рейтинг и ограничения

Пост 30-Ноя-2011 16:33 (спустя 21 час)

Топик был перенесен из форума Мультипликация в форум Зарубежные полнометражные мультфильмы

CaptRom
 

the_lame

Корсар

Пост 20-Янв-2012 08:37 (спустя 1 месяц 20 дней)

[Q] 

Как то я пропустил этот мульт, надо глянуть, да и малому должен понравиться. Спасибо автору!
[Профиль]  [ЛС] 

Znoi

Флибустьер

1163

Пост 21-Янв-2012 10:47 (спустя 1 день 2 часа)

[Q] 

Cпасибо
[Профиль]  [ЛС] 

AmoZ

Флибустьер

3325

Пост 30-Янв-2012 18:28 (спустя 9 дней)

[Q] 

Прикольный мульт.
[Профиль]  [ЛС] 

Антон0007

Штурман

138

Пост 13-Фев-2012 22:19 (спустя 14 дней)

[Q] 

пожалуйста станьте на раздачу, скорости вообще нет.
[Профиль]  [ЛС] 

SBalykov

Корсар

1452

Пост 17-Июн-2012 06:44 (спустя 4 месяца 3 дня)

[Q] 

Неплохой мультик, смотрел давно, но впечатление осталось хорошее.

_________________
Never put off till tomorrow what can be done after tomorrow...
S.Balykov
[Профиль]  [ЛС] 

Gemornax

Морской Волк

Пост 06-Июл-2012 00:58 (спустя 18 дней)

[Q] 

Мульт отличный, произвел сильное впечатление 12 лет назад.!!!!
[Профиль]  [ЛС] 

Pipets

Корсар

Пост 09-Июл-2012 21:32 (спустя 3 дня)

[Q] 

[Профиль]  [ЛС] 

CHARLI2236

1096

Пост 30-Окт-2012 13:37 (спустя 3 месяца 20 дней)

[Q] 

спс

_________________
[Профиль]  [ЛС] 

kucha11

Корсар

Пост 29-Ноя-2015 02:04 (спустя 3 года)

[Q] 

Раздавать будем или как?
[Профиль]  [ЛС] 
Показать сообщения:    
Ответить на тему

Текущее время: Сегодня 02:11

Часовой пояс: GMT + 4



Вы не можете начинать темы
Вы не можете отвечать на сообщения
Вы не можете редактировать свои сообщения
Вы не можете удалять свои сообщения
Вы не можете голосовать в опросах
Вы не можете прикреплять файлы к сообщениям
Вы не можете скачивать файлы

▼ Вниз