ML
     
  Уважаемый Гость!
Вы можете поддержать проект и зарегистрироваться у наших партнеров - онлайн-стратегия MyLands. При регистрации в игре Вы получите код, который сможете активировать после регистрации на pirat.ca и получить 1000 дублонов.

Ваш код:
11f49771fdf057c9d51610e4a0925c3b46ddb655
 
     

Как приручить дракона: Дар ночной фурии / Dragons: Gift of the Night Fury (Том Оуенс / Tom Owens) [2011 г., короткометражка, приключения, семейный, DVDRip] (MVO)

Ответить на тему
 
Автор
Сообщение

Пост 01-Дек-2011 00:43

[Q] 

Sirota

Легенда

Как приручить дракона: Дар ночной фурии / Dragons: Gift of the Night Fury Год выпуска: 2011
Мировая премьера: 15 ноября 2011
Производство: США
Жанр: короткометражка, приключения, семейный
Продолжительность: 00:22:14
Перевод: профессиональный (многоголосый, закадровый)
Оригинальный аудиопоток: Английский
Режиссер: Том Оуенс / Tom Owens
В ролях: Джей Барушель
Джерард Батлер
Крэйг Фергюсон
Америка Феррера
Джона Хилл
ТиДжей Миллер
Кристофер Минц-Плассе
Кристен Уиг
Доп. информация: сценарий Адам Ф. Голдберг
продюсер Кейт Спенсер, Дин ДеБлуа
композитор Доминик Льюис
Сэмпл, IMDB, КиноПоиск
Источник/Качество: DVDRip
Формат: AVI
Видео кодек: XviD
Аудио кодек: AC3
Видео: 720x400 (1.80:1), 23.976 fps, XviD build 50 ~1485 kbps avg, 0.22 bit/pixel
Аудио: Rus 48 kHz, AC3 Dolby Digital, 2/0 (L,R) ch, ~192.00 kbps avg
Аудио #2: Eng 48 kHz, AC3 Dolby Digital, 2/0 (L,R) ch, ~192.00 kbps avg
Субтитры: нет
General
Format : AVI
Format/Info : Audio Video Interleave
File size : 302 MiB
Duration : 22mn 23s
Overall bit rate : 1 884 Kbps
Writing application : VirtualDubMod 1.5.10.2 (build 2540/release)
Writing library : VirtualDubMod build 2540/release
Video #0
ID : 0
Format : MPEG-4 Visual
Format profile : [email protected]
Format settings, BVOP : Yes
Format settings, QPel : No
Format settings, GMC : No warppoints
Format settings, Matrix : Default (MPEG)
Codec ID : XVID
Codec ID/Hint : XviD
Duration : 22mn 23s
Bit rate : 1 486 Kbps
Width : 720 pixels
Height : 400 pixels
Display aspect ratio : 16:9
Frame rate : 23.976 fps
Resolution : 24 bits
Colorimetry : 4:2:0
Scan type : Progressive
Bits/(Pixel*Frame) : 0.215
Stream size : 238 MiB (79%)
Writing library : XviD 1.2.1 (UTC 2008-12-04)
Audio #1
ID : 1
Format : AC-3
Format/Info : Audio Coding 3
Codec ID : 2000
Duration : 22mn 23s
Bit rate mode : Constant
Bit rate : 192 Kbps
Channel(s) : 2 channels
Channel positions : L R
Sampling rate : 48.0 KHz
Stream size : 30.7 MiB (10%)
Alignment : Split accross interleaves
Interleave, duration : 42 ms (1.00 video frame)
Interleave, preload duration : 500 ms
Audio #2
ID : 2
Format : AC-3
Format/Info : Audio Coding 3
Codec ID : 2000
Duration : 22mn 23s
Bit rate mode : Constant
Bit rate : 192 Kbps
Channel(s) : 2 channels
Channel positions : L R
Sampling rate : 48.0 KHz
Stream size : 30.7 MiB (10%)
Alignment : Split accross interleaves
Interleave, duration : 42 ms (1.00 video frame)
Interleave, preload duration : 500 ms
-
-Релиз подготовлен:

-
-
Download / Скачать

Хотите скачать бесплатно? Зарегистрируйтесь на сайте (ссылка на регистрацию). Pirat.ca - самый быстрый торрент трекер в рунете!

Как скачивать  ·   Что такое торрент  ·   Рейтинг и ограничения

Luzhok

Легенда

Пост 01-Дек-2011 01:13 (спустя 29 минут)

[Q] 

Sirota,
большое спасибо!
[Профиль]  [ЛС] 

Пост 01-Дек-2011 05:08 (спустя 3 часа)

Топик был перенесен из форума Мультипликация в форум Новинки (HD|DVD|BD|TV|SAT|PDTV| - Rips)

CaptRom
 

dimasik

Лоцман

Пост 01-Дек-2011 10:03 (спустя 8 часов)

[Q] 

забираю ..ребенку понравится
[Профиль]  [ЛС] 

Alexe10

Гроза морей

36

Пост 01-Дек-2011 18:22 (спустя 8 часов)

[Q] 

Спасибо!
Детей порадую!
[Профиль]  [ЛС] 

polozm

Легенда

Пост 02-Дек-2011 07:07 (спустя 12 часов)

[Q] 

спасибо

_________________
mac mini -2.0 GHz Intel Core i7/ 8 GB DDR3. /Intel HD 3000(512mb)OS X 10.9 Mavericks
[Профиль]  [ЛС] 

_SARMAT_

Лоцман

Пост 02-Дек-2011 15:05 (спустя 7 часов)

[Q] 

жаль что коротенький мульт... Огромное спасибо!
[Профиль]  [ЛС] 

Nikos70

Шкипер

Пост 02-Дек-2011 19:30 (спустя 4 часа)

[Q] 

Спасибочки
[Профиль]  [ЛС] 

SERG_E74

Шкипер

448

Пост 02-Дек-2011 22:59 (спустя 3 часа)

[Q] 

Спасибо!!!
Мои пацаны в восторге!!!
[Профиль]  [ЛС] 

alancer

Штурман

21

Пост 03-Дек-2011 04:12 (спустя 5 часов)

[Q] 

сеннкью))

_________________
[Профиль]  [ЛС] 

XAHHAWWW

Морской Волк

Пост 03-Дек-2011 09:33 (спустя 5 часов)

[Q] 

Спасибо!!!!!!!!
[Профиль]  [ЛС] 

Hausser

Гроза морей

Пост 10-Дек-2011 12:59 (спустя 7 дней)

[Q] 

Благодарю, ребенок смотрит.
[Профиль]  [ЛС] 

vlana

Лоцман

Пост 10-Дек-2011 20:48 (спустя 7 часов)

[Q] 

Спасибо, обожаю беззубика!!!
[Профиль]  [ЛС] 

alexis164

Морской Волк

Пост 29-Мар-2012 14:43 (спустя 3 месяца 18 дней)

[Q] 

Очень позитивный мультфильм,с нетерпением ждём полноценную вторую часть!
[Профиль]  [ЛС] 

Пост 10-Апр-2012 17:30 (спустя 12 дней)

Топик был перенесен из форума Современное кино (с 2000 г.) в форум Зарубежные полнометражные мультфильмы

Linnan
 

stepanovpv

Морской Волк

Пост 07-Июн-2012 22:16 (спустя 2 месяца 9 дней)

[Q] 

Круто!

_________________
Переубедить вас мне не удастся, поэтому сразу перейду к оскорблениям.
[Профиль]  [ЛС] 

CHARLI2236

1097

Пост 30-Окт-2012 13:09 (спустя 4 месяца 22 дня)

[Q] 

спс

_________________
[Профиль]  [ЛС] 

сергей янкин

Лоцман

Пост 31-Мар-2013 17:23 (спустя 5 месяцев 1 день)

[Q] 

спосибо за торрент! собрала почти все серии этого замечательного мульта. сын смотрит взахлёб!
[Профиль]  [ЛС] 

black kat

Лоцман

Пост 08-Июл-2013 13:33 (спустя 3 месяца 7 дней)

[Q] 

СПАСИБО!!!!!!!!!!!!!!!!
[Профиль]  [ЛС] 

mishel_ctal

Штурман

37

Пост 31-Мар-2014 17:58 (спустя 8 месяцев 23 дня)

[Q] 

спасибо. хороший мульт
[Профиль]  [ЛС] 

mir3apt

Шкипер

33

Пост 15-Апр-2014 15:46 (спустя 14 дней)

[Q] 

Спасибо, заценимс.
[Профиль]  [ЛС] 
Показать сообщения:    
Ответить на тему

Текущее время: Сегодня 03:11

Часовой пояс: GMT + 4



Вы не можете начинать темы
Вы не можете отвечать на сообщения
Вы не можете редактировать свои сообщения
Вы не можете удалять свои сообщения
Вы не можете голосовать в опросах
Вы не можете прикреплять файлы к сообщениям
Вы не можете скачивать файлы

▼ Вниз