ML
     
  Уважаемый Гость!
Вы можете поддержать проект и зарегистрироваться у наших партнеров - онлайн-стратегия MyLands. При регистрации в игре Вы получите код, который сможете активировать после регистрации на pirat.ca и получить 1000 дублонов.

Ваш код:
822959f93c00d34653763d5bbf9ee9a7134af98a
 
     

Том и Джерри полет на марс / Tom and Jerry Blast Off to Mars (Билл Копп) [2005 г., детский, семейный, DVDRip]

Ответить на тему
 
Автор
Сообщение

Пост 02-Дек-2011 16:08

[Q] 

Андря

Том и Джерри полет на марс / Tom and Jerry Blast Off to Mars
Год выпуска: 2005
Страна: США
Жанр: детский, семейный
Продолжительность: 01:14:26
Перевод: Профессиональный (многоголосый, закадровый)
Режиссер: Билл Копп / Bill Kopp
Описание: Том и Джерри для своих забав и проказ уже использовали все возможные места на нашей планете Земля и теперь они собираются повеселиться от души на Марсе. Однако, марсиане оказались мелковаты: малёхонькие гуманоиды приняли Тома за свирепого галактического монстра и решили расправиться с беднягой.
А маленького хитрюгу Джерри приняли за космического вождя марсиан, который вернулся после долгого отсутствия. Получится ли у мышонка и кота помириться на время, чтобы спасти Землю от инопланетного вторжения? Ведь для этого будут задействованы все девять жизней кота Тома!
Качество: DVDRip
Формат: AVI
Видео кодек: XviD
Аудио кодек: MP3
Видео: 688x512 (1.34:1), 23.976 fps, XviD build 50 1188 kbps avg, 0.14 bit/pixel
Аудио: 48 kHz, MPEG Layer 3, 2 ch, ~116.07 kbps avg
General
Complete name : Том и Джерри полёт на марс(700).avi
Format : AVI
Format/Info : Audio Video Interleave
File size : 701 MiB
Duration : 1h 14mn
Overall bit rate : 1 317 Kbps
Writing application : VirtualDubMod 1.5.4.1 (build 2178/release)
Writing library : VirtualDubMod build 2178/release
Video
Format : MPEG-4 Visual
Format profile : Streaming [email protected]
Format settings, BVOP : Yes
Format settings, QPel : No
Format settings, GMC : No warppoints
Format settings, Matrix : Custom
Codec ID : XVID
Codec ID/Hint : XviD
Duration : 1h 14mn
Bit rate : 1 188 Kbps
Width : 688 pixels
Height : 512 pixels
Display aspect ratio : 4/3
Frame rate : 23.976 fps
Resolution : 24 bits
Colorimetry : 4:2:0
Scan type : Progressive
Bits/(Pixel*Frame) : 0.141
Stream size : 633 MiB (90%)
Writing library : XviD 50
Audio
Format : MPEG Audio
Format version : Version 1
Format profile : Layer 3
Codec ID : 55
Codec ID/Hint : MP3
Duration : 1h 14mn
Bit rate mode : Variable
Bit rate : 116 Kbps
Minimum bit rate : 128 Kbps
Channel(s) : 2 channels
Sampling rate : 48.0 KHz
Resolution : 16 bits
Stream size : 61.8 MiB (9%)
Alignment : Aligned on interleaves
Interleave, duration : 24 ms (0.58 video frame)
Interleave, preload duration : 158 ms
Writing library : LAME3.98r
Encoding settings : ABR
Language : Russian
Download / Скачать

Хотите скачать бесплатно? Зарегистрируйтесь на сайте (ссылка на регистрацию). Pirat.ca - самый быстрый торрент трекер в рунете!

Как скачивать  ·   Что такое торрент  ·   Рейтинг и ограничения

Пост 02-Дек-2011 22:49 (спустя 6 часов)

Топик был перенесен из форума Мультипликация в форум Зарубежные полнометражные мультфильмы

Sirota
 
Показать сообщения:    
Ответить на тему

Текущее время: Сегодня 05:56

Часовой пояс: GMT + 4



Вы не можете начинать темы
Вы не можете отвечать на сообщения
Вы не можете редактировать свои сообщения
Вы не можете удалять свои сообщения
Вы не можете голосовать в опросах
Вы не можете прикреплять файлы к сообщениям
Вы не можете скачивать файлы

▼ Вниз