ML
     
  Уважаемый Гость!
Вы можете поддержать проект и зарегистрироваться у наших партнеров - онлайн-стратегия MyLands. При регистрации в игре Вы получите код, который сможете активировать после регистрации на pirat.ca и получить 1000 дублонов.

Ваш код:
822959f93c00d34653763d5bbf9ee9a7134af98a
 
     

Том и Джерри: Волшебное кольцо / Tom and Jerry: The Magic Ring (Джеймс Т. Уолкер / James T. Walker) [2002 г.] (боевик, комедия, семейный) [DVDRip] (Dub)

Ответить на тему
 
Автор
Сообщение

Пост 02-Дек-2011 16:08

[Q] 

Андря

Том и Джерри: Волшебное кольцо / Tom and Jerry: The Magic Ring
Год выпуска: 2002
Мировая премьера: 12 марта 2002
Дата выхода DVD: 11 августа 2009, «Юниверсал Пикчерс Рус»
Производство: США
Жанр: боевик, комедия, семейный
Продолжительность: 00:59:46
Перевод: профессиональный (многоголосый, закадровый)
Субтитры: нет
Режиссер: Джеймс Т. Уолкер / James T. Walker
Описание: Том назначен ответственным за волшебное кольцо, которое принадлежит его хозяину, молодому волшебнику. Но вы и представить себе не можете, в какой ужас пришел кот, когда кольцо застряло на голове у малыша Джерри.
Более того, мышонок прямо с кольцом на своей ушастой голове и отправился прогуляться в город! И еще до того, как вы успеете произнести «абракадабра», весь город бросится в погоню за нашими героями, кольцо-то ведь — волшебное!
Драгоценное колечко начинает вытворять всевозможные чудеса, добавляя хлопот нашей неугомонной парочке. Словом, Тому и Джерри предстоит пережить самое удивительное и непредсказуемое приключения за их мультипликационную карьеру.
Сэмпл
Источник/Качество: DVDRip
Формат: AVI
Видео кодек: XviD
Аудио кодек: AC3
Видео: 640x480 (1.33:1), 25 fps, XviD build 50 ~1537 kbps avg, 0.20 bit/pixel
Аудио: 48 kHz, AC3 Dolby Digital, 2/0 (L,R) ch, ~192.00 kbps avg
General
Format : AVI
Format/Info : Audio Video Interleave
File size : 744 MiB
Duration : 59mn 46s
Overall bit rate : 1 740 Kbps
Writing application : VirtualDubMod 1.5.10.3 (build 2550/release)
Writing library : VirtualDubMod build 2550/release
Video #0
ID : 0
Format : MPEG-4 Visual
Format profile : [email protected]
Format settings, BVOP : Yes
Format settings, QPel : No
Format settings, GMC : No warppoints
Format settings, Matrix : Default (MPEG)
Codec ID : XVID
Codec ID/Hint : XviD
Duration : 59mn 46s
Bit rate : 1 538 Kbps
Width : 640 pixels
Height : 480 pixels
Display aspect ratio : 4:3
Frame rate : 25.000 fps
Resolution : 24 bits
Colorimetry : 4:2:0
Scan type : Progressive
Bits/(Pixel*Frame) : 0.200
Stream size : 657 MiB (88%)
Writing library : XviD 1.2.1 (UTC 2008-12-04)
Audio #1
ID : 1
Format : AC-3
Format/Info : Audio Coding 3
Codec ID : 2000
Duration : 59mn 46s
Bit rate mode : Constant
Bit rate : 192 Kbps
Channel(s) : 2 channels
Channel positions : L R
Sampling rate : 48.0 KHz
Stream size : 82.1 MiB (11%)
Alignment : Split accross interleaves
Interleave, duration : 40 ms (1.00 video frame)
Interleave, preload duration : 500 ms
Download / Скачать

Хотите скачать бесплатно? Зарегистрируйтесь на сайте (ссылка на регистрацию). Pirat.ca - самый быстрый торрент трекер в рунете!

Как скачивать  ·   Что такое торрент  ·   Рейтинг и ограничения

Пост 02-Дек-2011 22:48 (спустя 6 часов)

Топик был перенесен из форума Мультипликация в форум Зарубежные полнометражные мультфильмы

Sirota
 

Alina23

Пост 06-Авг-2012 09:38 (спустя 8 месяцев 3 дня)

[Q] 

хоть 100 раз еще посмотрю - никогда не надоест ))) спасибо.
[Профиль]  [ЛС] 
Показать сообщения:    
Ответить на тему

Текущее время: Сегодня 05:54

Часовой пояс: GMT + 4



Вы не можете начинать темы
Вы не можете отвечать на сообщения
Вы не можете редактировать свои сообщения
Вы не можете удалять свои сообщения
Вы не можете голосовать в опросах
Вы не можете прикреплять файлы к сообщениям
Вы не можете скачивать файлы

▼ Вниз