ML
     
  Уважаемый Гость!
Вы можете поддержать проект и зарегистрироваться у наших партнеров - онлайн-стратегия MyLands. При регистрации в игре Вы получите код, который сможете активировать после регистрации на pirat.ca и получить 1000 дублонов.

Ваш код:
0af2e2107bc9b5dd5ac2c09f9fc25e1a77c43887
 
     

Том и Джерри: История о Щелкунчике / Tom and Jerry: A Nutcracker Tale (Спайк Брандт, Тони Червоне / Spike Brandt, Tony Cervone) [2007 г.] (комедия, приключения, семейный) [DVDRip] (Dub)

Ответить на тему
 
Автор
Сообщение

Пост 02-Дек-2011 16:08

[Q] 

Андря

Том и Джерри: История о Щелкунчике / Tom and Jerry: A Nutcracker Tale
Год выпуска: 2007
Мировая премьера: 2 октября 2007
Дата выхода DVD: 26 мая 2011, «CP-Digital»
Производство: США
Жанр: комедия, приключения, семейный
Продолжительность: 00:46:50
Перевод: профессиональный (полное дублирование)
Субтитры: нет
Режиссер: Спайк Брандт, Тони Червоне / Spike Brandt, Tony Cervone
Описание: В пустом оперном театре Джерри загадывает желание о собственных выступлениях, и магическим образом его мечта сбывается. Маленький мышонок переносится в волшебное королевство, где все возможно: конфетные леса, поющие снежинки, даже игрушки оживают!
Джерри отлично проводит время со своими новыми друзьями, когда он танцует с балериной из музыкальной коробки, он счастлив, как никогда ранее. К сожалению, бездомные кошки, приведенные Томом, врываются на вечеринку Джерри, похищают балерину из музыкальной коробки и приносят ужас в праздничное королевство. Теперь все зависит от Джерри, с помощью знакомой мышки Таффи и новых друзей он может все наладить!
Сэмпл
Источник/Качество: DVDRip
Формат: AVI
Видео кодек: XviD
Аудио кодек: AC3
Видео: 704x528 (1.33:1), 25 fps, XviD build 50 ~2017 kbps avg, 0.22 bit/pixel
Аудио: 48 kHz, AC3 Dolby Digital, 2/0 (L,R) ch, ~192.00 kbps avg
General
Format : AVI
Format/Info : Audio Video Interleave
File size : 743 MiB
Duration : 46mn 50s
Overall bit rate : 2 219 Kbps
Writing application : VirtualDubMod 1.5.10.3 (build 2550/release)
Writing library : VirtualDubMod build 2550/release
Video #0
ID : 0
Format : MPEG-4 Visual
Format profile : [email protected]
Format settings, BVOP : Yes
Format settings, QPel : No
Format settings, GMC : No warppoints
Format settings, Matrix : Default (MPEG)
Codec ID : XVID
Codec ID/Hint : XviD
Duration : 46mn 50s
Bit rate : 2 017 Kbps
Width : 704 pixels
Height : 528 pixels
Display aspect ratio : 4:3
Frame rate : 25.000 fps
Resolution : 24 bits
Colorimetry : 4:2:0
Scan type : Progressive
Bits/(Pixel*Frame) : 0.217
Stream size : 676 MiB (91%)
Writing library : XviD 1.2.1 (UTC 2008-12-04)
Audio #1
ID : 1
Format : AC-3
Format/Info : Audio Coding 3
Codec ID : 2000
Duration : 46mn 50s
Bit rate mode : Constant
Bit rate : 192 Kbps
Channel(s) : 2 channels
Channel positions : L R
Sampling rate : 48.0 KHz
Stream size : 64.3 MiB (9%)
Alignment : Split accross interleaves
Interleave, duration : 40 ms (1.00 video frame)
Interleave, preload duration : 500 ms
Download / Скачать

Хотите скачать бесплатно? Зарегистрируйтесь на сайте (ссылка на регистрацию). Pirat.ca - самый быстрый торрент трекер в рунете!

Как скачивать  ·   Что такое торрент  ·   Рейтинг и ограничения

Пост 02-Дек-2011 22:48 (спустя 6 часов)

Топик был перенесен из форума Мультипликация в форум Зарубежные полнометражные мультфильмы

Sirota
 

OlegSh

Морской Волк

Пост 26-Дек-2011 14:55 (спустя 23 дня)

[Q] 

прикольно
[Профиль]  [ЛС] 

Di VuLfi

Морской Волк

27

Пост 22-Дек-2012 23:14 (спустя 11 месяцев 27 дней)

[Q] 


_________________
"ничто не истенно и все дозволено"
[Профиль]  [ЛС] 

GuT_SpIt

Шкипер

Пост 27-Дек-2012 23:58 (спустя 5 дней)

[Q] 

[Профиль]  [ЛС] 
Показать сообщения:    
Ответить на тему

Текущее время: Сегодня 00:06

Часовой пояс: GMT + 4



Вы не можете начинать темы
Вы не можете отвечать на сообщения
Вы не можете редактировать свои сообщения
Вы не можете удалять свои сообщения
Вы не можете голосовать в опросах
Вы не можете прикреплять файлы к сообщениям
Вы не можете скачивать файлы

▼ Вниз