ML
     
  Уважаемый Гость!
Вы можете поддержать проект и зарегистрироваться у наших партнеров - онлайн-стратегия MyLands. При регистрации в игре Вы получите код, который сможете активировать после регистрации на pirat.ca и получить 1000 дублонов.

Ваш код:
0af2e2107bc9b5dd5ac2c09f9fc25e1a77c43887
 
     

Том и Джерри: Величайшие Погони / Tom And Jerry's Greatest Chases: Volume Four (Джозеф Барбера, Уильям Ханна) [2010 г.] (детский, комедия, семейный, мультфильм) [DVDRip]

Ответить на тему
 
Автор
Сообщение

Пост 02-Дек-2011 16:08

[Q] 

Андря

Том и Джерри: Величайшие Погони / Tom And Jerry's Greatest Chases: Volume Four
Год выпуска: 2010
Производство: США, Warner Brosers
Жанр: детский, комедия, семейный, мультфильм
Продолжительность: 01:18:05
Перевод: Не требуется
Субтитры: Отсутствуют
Режиссер: Джозеф Барбера \ Joseph Barbera, Уильям Ханна \ William Hanna
Описание: Всемирно известный мультсериал о нескончаемых распрях кота Тома и мышонка Джерри.
Источник/Качество: DVDRip
Формат: AVI
Видео кодек: XviD
Аудио кодек: MP3
Видео: 640x464 (1.38:1), 29.970 fps, XviD MPEG-4 ~1102 kbps avg, 0.12 bit/pixel
Аудио: 48 kHz, MPEG Layer 3, 2 ch, ~128.00 kbps avg
Общее
Полное имя : Tom.And.Jerry.Greatest.Chases..avi
Формат : AVI
Формат/Информация : Audio Video Interleave
Размер файла : 696 Мбайт
Продолжительность : 1 ч. 18 м.
Общий поток : 1243 Кбит/сек
Программа кодирования : FairUse Wizard - http://fairusewizard.com
Библиотека кодирования : The best and REALLY easy backup tool
Видео
Идентификатор : 0
Формат : MPEG-4 Visual
Профиль формата : Advanced [email protected]
Параметр BVOP формата : 1
Параметр QPel формата : Нет
Параметр GMC формата : Без точки перехода
Параметр матрицы формата : Default (MPEG)
Режим смешивания : Сжатый битовый поток
Идентификатор кодека : XVID
Идентификатор кодека/Подсказка : XviD
Продолжительность : 1 ч. 18 м.
Битрейт : 1103 Кбит/сек
Ширина : 640 пикселей
Высота : 464 пикселя
Соотношение сторон : 1,379
Частота кадров : 29,970 кадров/сек
Цветовое пространство : YUV
Субдискретизация насыщенности : 4:2:0
Битовая глубина : 8 бит
Тип развёртки : Прогрессивная
Метод сжатия : С потерями
Бит/(Пиксели*Кадры) : 0.124
Размер потока : 618 Мбайт (89%)
Библиотека кодирования : XviD 1.2.0.dev47 (UTC 2006-11-01)
Аудио
Идентификатор : 1
Формат : MPEG Audio
Версия формата : Version 1
Профиль формата : Layer 3
Режим : Joint stereo
Расширение режима : MS Stereo
Идентификатор кодека : 55
Идентификатор кодека/Подсказка : MP3
Продолжительность : 1 ч. 18 м.
Вид битрейта : Постоянный
Битрейт : 128 Кбит/сек
Каналы : 2 канала
Частота : 48,0 КГц
Метод сжатия : С потерями
Размер потока : 71,7 Мбайт (10%)
Выравнивание : Соединение по промежуткам
Продолжительность промежутка : 33 мс. (1,00 видеокадр)
Время предзагрузки промежутка : 504 мс.
Библиотека кодирования : LAME3.97
Настройки программы : -m j -V 4 -q 2 -lowpass 17 -b 128
Download / Скачать

Хотите скачать бесплатно? Зарегистрируйтесь на сайте (ссылка на регистрацию). Pirat.ca - самый быстрый торрент трекер в рунете!

Как скачивать  ·   Что такое торрент  ·   Рейтинг и ограничения

Пост 02-Дек-2011 22:45 (спустя 6 часов)

Топик был перенесен из форума Мультипликация в форум Зарубежные полнометражные мультфильмы

Sirota
 

mm1983mm

Штурман

Пост 31-Дек-2011 00:47 (спустя 28 дней)

[Q] 

сенкьююю
[Профиль]  [ЛС] 

Windows

Морской Волк

Пост 21-Янв-2012 21:07 (спустя 21 день)

[Q] 

Спасибо!
[Профиль]  [ЛС] 

Uwer12

Лоцман

Пост 23-Янв-2012 10:45 (спустя 1 день 13 часов)

[Q] 

Спасибо, посмотрим)
[Профиль]  [ЛС] 

fighter

Штурман

Пост 05-Фев-2012 22:38 (спустя 13 дней)

[Q] 

перевод не требуется... это как? ))
[Профиль]  [ЛС] 

kalmyk73

Морской Волк

Пост 09-Июн-2012 12:33 (спустя 4 месяца 3 дня)

[Q] 

чеж там переводить то

_________________
Я люблю тебя жизнь ну а ты меня СНОВА И СНОВА.
[Профиль]  [ЛС] 

andrey1366613666

Штурман

Пост 05-Янв-2014 00:00 (спустя 1 год 6 месяцев)

[Q] 

Спасибо!!! Спасибо!!! Пиратка рулит!
[Профиль]  [ЛС] 

coderzona

Штурман

Пост 05-Янв-2014 14:11 (спустя 14 часов)

[Q] 

Респект за Тома и Джерри)
[Профиль]  [ЛС] 

BookkeeperWolf

Легенда

Пост 08-Янв-2016 16:23 (спустя 2 года)

[Q] 

Спасибо! Лови бочку
[Профиль]  [ЛС] 
Показать сообщения:    
Ответить на тему

Текущее время: Сегодня 00:05

Часовой пояс: GMT + 4



Вы не можете начинать темы
Вы не можете отвечать на сообщения
Вы не можете редактировать свои сообщения
Вы не можете удалять свои сообщения
Вы не можете голосовать в опросах
Вы не можете прикреплять файлы к сообщениям
Вы не можете скачивать файлы

▼ Вниз