ML
     
  Уважаемый Гость!
Вы можете поддержать проект и зарегистрироваться у наших партнеров - онлайн-стратегия MyLands. При регистрации в игре Вы получите код, который сможете активировать после регистрации на pirat.ca и получить 1000 дублонов.

Ваш код:
8dcb839cf1b47e56d6dc42d17f26b3e4822e9aee
 
     

Том и Джерри: Трепещи, Усатый! / Tom and Jerry in Shiver Me Whiskers (Скотт Джеральдс / Scott Jeralds) [2006 г.] (комедия, приключения, семейный) [DVDRip] (Dub)

Ответить на тему
 
Автор
Сообщение

Пост 02-Дек-2011 16:08

[Q] 

Андря

Том и Джерри: Трепещи, Усатый! / Tom and Jerry in Shiver Me Whiskers
Год выпуска: 2006
Мировая премьера: 22 августа 2006
Дата выхода DVD: 2 июня 2011, «CP-Digital»
Производство: США
Жанр: комедия, приключения, семейный
Продолжительность: 01:08:34
Перевод: профессиональный (полное дублирование) лицензия
Субтитры: нет
Режиссер: Скотт Джеральдс / Scott Jeralds
Описание: Это хулиганское путешествие затеял Том, когда отправился в плавание на непритязательной лодке за самым известным и ужасным пиратом морей Капитаном Рэдом. Устав драить палубу, Том думает, что удача изменила ему, но тут неожиданно всплывает мистическая бутылка, в которой хранится карта сокровищ.
Мечта Тома найти сокровище и забрать его себе, похоже, невыполнима — в бутылке, кроме карты, обнаружился мышонок Джерри. Бедный маленький Джерри был стражем карты, а теперь у него на хвосте жадный кот. Придется ли Джерри отдать сокровище? Попадет ли Том первым на остров? Гонка началась, а Тому и Джерри нужно быть вместе, чтобы пробраться через обезьян, атакующих кокосами, обойти гигантского осьминога, а также перехитрить пиратов, и найти, наконец спрятанные сокровища!
Источник/Качество: DVDRip
Формат: AVI
Видео кодек: XviD
Аудио кодек: MP3
Видео: 608x448 (1.36:1), 25 fps, XviD build 63 ~1378 kbps avg, 0.20 bit/pixel
Аудио: 48 kHz, MPEG Layer 3, 2 ch, ~128.00 kbps avg
Сэмпл
Общее
Полное имя : Tom and Jerry in Shiver Me Whiskers.avi
Формат : AVI
Формат/Информация : Audio Video Interleave
Размер файла : 744 Мбайт
Продолжительность : 1 ч. 8 м.
Общий поток : 1516 Кбит/сек
Программа кодирования : VirtualDubMod 1.5.10.3 | www.virtualdub-fr.org || (build 2550/release)
Библиотека кодирования : VirtualDubMod build 2550/release
Видео
Идентификатор : 0
Формат : MPEG-4 Visual
Профиль формата : Advanced [email protected]
Параметр BVOP формата : 1
Параметр QPel формата : Нет
Параметр GMC формата : Без точки перехода
Параметр матрицы формата : Выборочная
Идентификатор кодека : XVID
Идентификатор кодека/Подсказка : XviD
Продолжительность : 1 ч. 8 м.
Битрейт : 1379 Кбит/сек
Ширина : 608 пикселей
Высота : 448 пикселей
Соотношение сторон : 4:3
Частота кадров : 25,000 кадров/сек
Цветовое пространство : YUV
Субдискретизация насыщенности : 4:2:0
Битовая глубина : 8 бит
Тип развёртки : Прогрессивная
Метод сжатия : С потерями
Бит/(Пиксели*Кадры) : 0.202
Размер потока : 676 Мбайт (91%)
Библиотека кодирования : XviD 63
Аудио
Идентификатор : 1
Формат : MPEG Audio
Версия формата : Version 1
Профиль формата : Layer 3
Идентификатор кодека : 55
Идентификатор кодека/Подсказка : MP3
Продолжительность : 1 ч. 8 м.
Вид битрейта : Постоянный
Битрейт : 128 Кбит/сек
Каналы : 2 канала
Частота : 48,0 КГц
Метод сжатия : С потерями
Размер потока : 62,8 Мбайт (8%)
Выравнивание : Соединение по промежуткам
Продолжительность промежутка : 40 мс. (1,00 видеокадр)
Время предзагрузки промежутка : 504 мс.
Библиотека кодирования : LAME3.98r
Настройки программы : -m s -V 4 -q 2 -lowpass 17 -b 128
Download / Скачать

Хотите скачать бесплатно? Зарегистрируйтесь на сайте (ссылка на регистрацию). Pirat.ca - самый быстрый торрент трекер в рунете!

Как скачивать  ·   Что такое торрент  ·   Рейтинг и ограничения

Пост 02-Дек-2011 22:45 (спустя 6 часов)

Топик был перенесен из форума Мультипликация в форум Зарубежные полнометражные мультфильмы

Sirota
 

OlegSh

Морской Волк

Пост 26-Дек-2011 14:56 (спустя 23 дня)

[Q] 

сколько их здесь много
[Профиль]  [ЛС] 

Billi1933

Лоцман

Пост 14-Янв-2012 00:57 (спустя 18 дней)

[Q] 

Огромное СПАСИБО)))

_________________
Лучший
[Профиль]  [ЛС] 

LETHIK2010

Морской Волк

Пост 23-Янв-2012 11:33 (спустя 9 дней)

[Q] 

Спасибо. Трепещи, Усатый!
[Профиль]  [ЛС] 

VIP

Шкипер

Пост 05-Фев-2012 00:48 (спустя 12 дней)

[Q] 

[Профиль]  [ЛС] 

iuotkach

Морской Волк

Пост 04-Июн-2012 11:45 (спустя 3 месяца 28 дней)

[Q] 

[Профиль]  [ЛС] 

Slonishka

Шкипер

Пост 18-Янв-2014 15:19 (спустя 1 год 7 месяцев)

[Q] 

Встаньте на раздачу кто-нибудь
[Профиль]  [ЛС] 

Slonishka

Шкипер

Пост 20-Янв-2014 17:24 (спустя 2 дня 2 часа)

[Q] 

имею 10 процентов мульта дайте докачать то тут размер то всего тьфу за 5 минут при норм скорости
[Профиль]  [ЛС] 

Slonishka

Шкипер

Пост 23-Янв-2014 13:39 (спустя 2 дня 20 часов)

[Q] 

ну мульт то кто даст докачать а?
[Профиль]  [ЛС] 

Han.M

Флибустьер

Пост 24-Фев-2014 22:00 (спустя 1 месяц 1 день)

[Q] 

70 лет истроии, а мульты все такие же интересные. Почему у нас Ну, погоди! не продолжают снимать, не понимаю...
[Профиль]  [ЛС] 

websaurus

Штурман

Пост 22-Апр-2014 12:28 (спустя 1 месяц 25 дней)

[Q] 

Да Том и Джерри всегда на высоте.
[Профиль]  [ЛС] 
Показать сообщения:    
Ответить на тему

Текущее время: Сегодня 04:19

Часовой пояс: GMT + 4



Вы не можете начинать темы
Вы не можете отвечать на сообщения
Вы не можете редактировать свои сообщения
Вы не можете удалять свои сообщения
Вы не можете голосовать в опросах
Вы не можете прикреплять файлы к сообщениям
Вы не можете скачивать файлы

▼ Вниз