ML
     
  Уважаемый Гость!
Вы можете поддержать проект и зарегистрироваться у наших партнеров - онлайн-стратегия MyLands. При регистрации в игре Вы получите код, который сможете активировать после регистрации на pirat.ca и получить 1000 дублонов.

Ваш код:
0ea1bf889af42fca5f67d0a391efb3400850ad7c
 
     

Покахонтас / Pocahontas (Майк Гэбриел, Эрик Голдберг / Mike Gabriel, Eric Goldberg) [1995 г., мультфильм, мюзикл, драма, мелодрама, семейный, история, HDRip-AVC] Dub (Лицензия) [internal release]

Ответить на тему
 
Автор
Сообщение

Пост 18-Мар-2012 18:52

[Q] 

zyyx

--Покахонтас / Pocahontas
«Two different worlds. One true love.»
-- Год выпуска: 1995
Мировая премьера: 15 июня 1995
Дата выхода DVD: 27 марта 2012, «Уолт Дисней Компани СНГ»
Дата выхода Blu-Ray: 27 марта 2012, «Уолт Дисней Компани СНГ»
Производство: США
Жанр: мультфильм, мюзикл, драма, мелодрама, семейный, история
Продолжительность: 01:21:08
Перевод: Профессиональный (полное дублирование) [Лицензия]
Субтитры: отсутствуют
Режиссер: Майк Гэбриел, Эрик Голдберг / Mike Gabriel, Eric Goldberg
В ролях
Мэл Гибсон, Кристиан Бэйл, Джуди Кун, Ирен Бедард, Дэвид Огден Стайерз, Джон Кассир, Рассел Минс, Линда Хант, Дэнни Манн, Билли Коннолли
Описание
Из Европы отправляется в Новый Свет корабль с нашим героем Джоном Смитом. Экипаж, как объясняет капитан, плывет навстречу приключениям, успеху, богатству.
Но сам капитан намерен найти там нечто вполне определенное — золото. А живут в Америке индейцы, и рассказ пойдет о благородной принцессе Покахонтас.
Источник/Качество: HDRip-AVC | Сэмпл
Формат: MKV
Видео кодек: H.264
Аудио кодек: AC3
Видео: 1024x576, 23.976 fps, 2193 Kbps, 0.152 bit/pixel
Аудио: 48.0 KHz, 6 ch, 384 Kbps
General
Complete name : D:\zyyx\Pocahontas.HDRip-AVC.zyyx.mkv
Format : Matroska
File size : 1.46 GiB
Duration : 1h 21mn
Overall bit rate : 2 578 Kbps
Movie name : Pocahontas 1995 - Release for zyyx
Encoded date : UTC 2012-03-18 14:47:10
Writing application : mkvmerge v4.6.0 ('Still Crazy After All These Years') сборка от Mar 13 2011 18:33:29
Writing library : libebml v1.2.0 + libmatroska v1.1.0
Video
ID : 1
Format : AVC
Format/Info : Advanced Video Codec
Format profile : [email protected]
Format settings, CABAC : Yes
Format settings, ReFrames : 16 frames
Muxing mode : Container [email protected]
Codec ID : V_MPEG4/ISO/AVC
Duration : 1h 21mn
Bit rate : 2 142 Kbps
Nominal bit rate : 2 193 Kbps
Width : 1 024 pixels
Height : 576 pixels
Display aspect ratio : 16:9
Frame rate : 23.976 fps
Resolution : 24 bits
Colorimetry : 4:2:0
Scan type : Progressive
Bits/(Pixel*Frame) : 0.152
Stream size : 1.21 GiB (83%)
Writing library : x264 core 114 r1924 08d04a4
Audio
ID : 2
Format : AC-3
Format/Info : Audio Coding 3
Codec ID : A_AC3
Duration : 1h 21mn
Bit rate mode : Constant
Bit rate : 384 Kbps
Channel(s) : 6 channels
Channel positions : Front: L C R, Surround: L R, LFE
Sampling rate : 48.0 KHz
Stream size : 223 MiB (15%)






Автор рипа: zyyx
Download / Скачать

Хотите скачать бесплатно? Зарегистрируйтесь на сайте (ссылка на регистрацию). Pirat.ca - самый быстрый торрент трекер в рунете!

Как скачивать  ·   Что такое торрент  ·   Рейтинг и ограничения

jumpersky

Легенда

Пост 18-Мар-2012 19:28 (спустя 36 минут)

[Q] 

[Профиль]  [ЛС] 

Пост 18-Мар-2012 20:31 (спустя 1 час 3 минуты)

Топик был перенесен из форума Мультипликация в форум Зарубежные полнометражные мультфильмы

Никита
 

xxx-7777777-xxx

Шкипер

Пост 18-Мар-2012 23:28 (спустя 4 часа)

[Q] 

[Профиль]  [ЛС] 

Vlad__treker

Морской Волк

184

Пост 19-Мар-2012 13:10 (спустя 13 часов)

[Q] 

как всегда радуешь!

_________________
...:::Pirat.ca:::...
..:::The Best:::...
[Профиль]  [ЛС] 

Wolf111

57084

Пост 01-Авг-2012 11:17 (спустя 4 месяца 12 дней)

[Q] 

Поиогу с раздачей
[Профиль]  [ЛС] 

Феонолини

Шкипер

Пост 18-Апр-2014 15:48 (спустя 1 год 8 месяцев)

[Q] 

Эй, вернитесь на раздачу...

_________________
Где есть свет, всегда есть тень. Под светом счастья... Всегда есть тень отчаяния ...
Хун Мин
[Профиль]  [ЛС] 

Феонолини

Шкипер

Пост 18-Апр-2014 19:27 (спустя 3 часа)

[Q] 

Спасибо!!!

_________________
Где есть свет, всегда есть тень. Под светом счастья... Всегда есть тень отчаяния ...
Хун Мин
[Профиль]  [ЛС] 

днепрянен

Морской Волк

Пост 04-Июл-2014 00:36 (спустя 2 месяца 15 дней)

[Q] 

Чёт со звуком бока(((
[Профиль]  [ЛС] 

shalonina

Гроза морей

Пост 26-Авг-2014 16:33 (спустя 1 месяц 22 дня)

[Q] 

помогу с раздачей.

_________________
[Профиль]  [ЛС] 
Показать сообщения:    
Ответить на тему

Текущее время: Сегодня 00:38

Часовой пояс: GMT + 4



Вы не можете начинать темы
Вы не можете отвечать на сообщения
Вы не можете редактировать свои сообщения
Вы не можете удалять свои сообщения
Вы не можете голосовать в опросах
Вы не можете прикреплять файлы к сообщениям
Вы не можете скачивать файлы

▼ Вниз