ML
     
  Уважаемый Гость!
Вы можете поддержать проект и зарегистрироваться у наших партнеров - онлайн-стратегия MyLands. При регистрации в игре Вы получите код, который сможете активировать после регистрации на pirat.ca и получить 1000 дублонов.

Ваш код:
f612af22ea70acf5cbe90707ac5a076d215f8f7f
 
     

Вверх / Up (Пит Доктер / Pete Docter, Боб Питерсон / Bob Peterson) [2009 г., драма, комедия, приключения, семейный, BDRip] (Dub)

Ответить на тему
 
Автор
Сообщение

Пост 03-Дек-2011 15:57

[Q] 

Sirota

Легенда

Вверх / Up Год выпуска: 2009
Мировая премьера: 13 мая 2009
Российская премьера: 28 мая 2009, «BVSPR Disney»
Дата выхода DVD: 19 ноября 2009, «Уолт Дисней Компани СНГ»
Производство: США
Жанр: драма, комедия, приключения, семейный
Продолжительность: 01:36:37
Перевод: профессиональный (полное дублирование)
Автор(ы) перевода: Армен Джигарханян, Дальвин Щербаков, Иван Чуваткин, Александр Стефанцов, Владимир Тягичев
Режиссер: Пит Доктер / Pete Docter, Боб Питерсон / Bob Peterson
В ролях: Эдвард Эснер
Кристофер Пламмер
Джордан Нагаи
Боб Питерсон
Делрой Линдо
Джером Рэнфт
Джон Ратценбергер
Дэвид Кэй
Эли Доктер
Джереми Лир
Описание: 78-летний ворчун Карл Фредриксен считает, что жизнь обходит его стороной. Чтобы сдержать обещание, данное своей почившей жене, он решает осуществить свою мечту о великом приключении, привязав тысячи воздушных шариков к своему дому и улетев в дебри Южной Америки. Не пролетев и полмили, путешественник обнаруживает, что он ненароком прихватил с собой крайне разговорчивого и неисправимо жизнерадостного 8-летнего мальчика по имени Рассел…
Доп. информация: сценарий Пит Доктер, Боб Питерсон, Томас МакКарти
продюсер Йонас Ривера, Джон Лассетер, Кори Рэй,
композитор Майкл Джаккино
художник Рики Ниерва
монтаж Кевин Нолтинг
бюджет $175 000 000
сборы в США $293 004 164
сборы в мире + $438 337 692 = $731 341 856
сборы в России $11 997 927

IMDB, КиноПоиск
Источник/Качество: BDRip (источник: Blu-ray Remux/1080p/)
Формат: AVI
Видео кодек: XviD
Аудио кодек: AC3
Видео: 720x400 (1.80:1), 23.976 fps, XviD build 50 ~1704 kbps avg, 0.25 bit/pixel
Аудио: 48 kHz, AC3 Dolby Digital, 3/2 (L,C,R,l,r) + LFE ch, ~448.00 kbps avg
Субтитры: нет
Золотой орел, 2011 год
Номинации (1):
Лучший зарубежный фильм в российском прокате — «WDSSPR»
Оскар, 2010 год
Победитель (2):
Лучший саундтрек
Лучший анимационный фильм
Номинации (3):
Лучший фильм
Лучший сценарий
Лучший монтаж звука
Золотой глобус, 2010 год
Победитель (2):
Лучший саундтрек
Лучший анимационный фильм
Британская академия, 2010 год
Победитель (2):
Лучший саундтрек
Лучший анимационный фильм
Номинации (2):
Лучший оригинальный сценарий
Лучший звук
Жорж, 2010 год
Номинации (1):
Лучший анимационный фильм
Сатурн, 2010 год
Номинации (2):
Лучшая музыка
Лучший анимационный фильм
Венецианский кинофестиваль, 2009 год
Победитель (1):
Приз «Future Film Festival Digital Award» - особое упоминание
General
Format : AVI
Format/Info : Audio Video Interleave
File size : 1.46 GiB
Duration : 1h 36mn
Overall bit rate : 2 160 Kbps
Movie name : Вверх / Up (2009)
Director : poleee
Writing application : VirtualDubMod 1.5.10.2 (build 2542/release)
Copyright : www.forum.hellywood.ru
Comment : 16.11.2009
Video #0
ID : 0
Format : MPEG-4 Visual
Format profile : [email protected]
Format settings, BVOP : Yes
Format settings, QPel : No
Format settings, GMC : No warppoints
Format settings, Matrix : Custom
Codec ID : XVID
Codec ID/Hint : XviD
Duration : 1h 36mn
Bit rate : 1 704 Kbps
Width : 720 pixels
Height : 400 pixels
Display aspect ratio : 16:9
Frame rate : 23.976 fps
Resolution : 24 bits
Colorimetry : 4:2:0
Scan type : Progressive
Bits/(Pixel*Frame) : 0.247
Stream size : 1.15 GiB (79%)
Writing library : XviD 1.2.1 (UTC 2008-12-04)
Audio #1
ID : 1
Format : AC-3
Format/Info : Audio Coding 3
Codec ID : 2000
Duration : 1h 36mn
Bit rate mode : Constant
Bit rate : 448 Kbps
Channel(s) : 6 channels
Channel positions : Front: L C R, Surround: L R, LFE
Sampling rate : 48.0 KHz
Stream size : 308 MiB (21%)
Alignment : Split accross interleaves
Interleave, duration : 42 ms (1.01 video frame)
Interleave, preload duration : 500 ms
Download / Скачать

Хотите скачать бесплатно? Зарегистрируйтесь на сайте (ссылка на регистрацию). Pirat.ca - самый быстрый торрент трекер в рунете!

Как скачивать  ·   Что такое торрент  ·   Рейтинг и ограничения

Пост 04-Дек-2011 09:17 (спустя 17 часов)

Топик был перенесен из форума Мультипликация в форум Зарубежные полнометражные мультфильмы

CaptRom
 

Filimonia

Корсар

Пост 19-Дек-2011 10:36 (спустя 15 дней)

[Q] 

Спасибо!
[Профиль]  [ЛС] 

CHARLI2236

1098

Пост 30-Окт-2012 12:57 (спустя 10 месяцев 11 дней)

[Q] 

благодарю

_________________
[Профиль]  [ЛС] 

dragan123

Морской Волк

Пост 22-Дек-2012 12:27 (спустя 1 месяц 22 дня)

[Q] 

спасибки
[Профиль]  [ЛС] 

dmchichirin

Лоцман

Пост 10-Апр-2013 22:16 (спустя 3 месяца 19 дней)

[Q] 

Классный мульт!!!
Автору - респект!
[Профиль]  [ЛС] 

allexxxv

Морской Волк

Пост 13-Апр-2013 17:14 (спустя 2 дня 18 часов)

[Q] 

[Профиль]  [ЛС] 

Nickoljas

Морской Волк

Пост 10-Июл-2013 03:37 (спустя 2 месяца 26 дней)

[Q] 

[Профиль]  [ЛС] 
Показать сообщения:    
Ответить на тему

Текущее время: Сегодня 00:26

Часовой пояс: GMT + 4



Вы не можете начинать темы
Вы не можете отвечать на сообщения
Вы не можете редактировать свои сообщения
Вы не можете удалять свои сообщения
Вы не можете голосовать в опросах
Вы не можете прикреплять файлы к сообщениям
Вы не можете скачивать файлы

▼ Вниз