ML
     
  Уважаемый Гость!
Вы можете поддержать проект и зарегистрироваться у наших партнеров - онлайн-стратегия MyLands. При регистрации в игре Вы получите код, который сможете активировать после регистрации на pirat.ca и получить 1000 дублонов.

Ваш код:
a6d1ef7ff63e237add5a4c8b21d8aa937c5e9b4b
 
     

Возвращение Буратино / Bentornato Pinocchio (Орландо Корради / Orlando Corradi) [2007 г., комедия, приключения. сказка, семейный, DVDRip] (Dub)

Ответить на тему
 
Автор
Сообщение

Пост 03-Дек-2011 16:28

[Q] 

Sirota

Легенда

Возвращение Буратино / Bentornato Pinocchio Год выпуска: 2007
Мировая премьера: 9 ноября 2007
Производство: Италия
Жанр: комедия, приключения. сказка, семейный
Продолжительность: 01:25:18
Перевод: профессиональный (полное дублирование) лицензия
Автор(ы) перевода: Александр Белый, Александр Груздев, Анна Мартиросова, Дмитрий Филимонов, Елена Дробышева
Режиссер: Орландо Корради / Orlando Corradi
В ролях: Оресте Бальдини
Federico Bebi
Оливьеро Динелли
Эмануэла Росси
Витторио Станьи
Описание: Наверняка вы слышали сказку о маленьком деревянном человечке по имени Буратино, который победил Карабаса-Барабаса и нашел Золотой Ключик. Этим ключиком он открыл потайную дверь в мастерской папы Карло и попал в Волшебную Страну. Хотите узнать, что случилось с ним дальше? Тогда слушайте внимательно… Буратино и папа Карло поселились в Волшебной стране.
Папа Карло открыл мастерскую, Буратино пошел в школу, и они зажили счастливо. Однажды Буратино гулял по речному берегу и услышал крик. Он увидел в воде девушку и бросился на помощь. Вдвоем они выбрались на сушу. Малыш очень удивился, когда узнал, что незнакомка — Золотая Фея. В благодарность за то, что он спас ее жизнь, Фея превратила Буратино в самого настоящего живого мальчика. Казалось бы, все мечты сбылись. Но Буратино не знал, что где-то в густом темном лесу поселился Черный Колдун, и теперь всей Волшебной Стране грозит большая опасность…
Доп. информация: сценарий Клелия Кастальдо, Loris Peota, Карло Коллоди
композитор Франко Микалицци
IMDB, КиноПоиск
Источник/Качество: DVDRip
Формат: AVI
Видео кодек: XviD
Аудио кодек: AC3
Видео: 704x368 (1.91:1), 25 fps, XviD MPEG-4 ~1836 kbps avg, 0.28 bit/pixel
Аудио: 48 kHz, AC3 Dolby Digital, 3/2 (L,C,R,l,r) + LFE ch, ~448.00 kbps avg
Субтитры: нет
General
Format : AVI
Format/Info : Audio Video Interleave
File size : 1.37 GiB
Duration : 1h 25mn
Overall bit rate : 2 294 Kbps
Writing application : VirtualDubMod 1.5.10.2 (build 2540/release)
Writing library : VirtualDubMod build 2540/release
Video #0
ID : 0
Format : MPEG-4 Visual
Format profile : [email protected]
Format settings, BVOP : Yes
Format settings, QPel : No
Format settings, GMC : No warppoints
Format settings, Matrix : Default (MPEG)
Muxing mode : Packed bitstream
Codec ID : XVID
Codec ID/Hint : XviD
Duration : 1h 25mn
Bit rate : 1 837 Kbps
Width : 704 pixels
Height : 368 pixels
Display aspect ratio : 1.913
Frame rate : 25.000 fps
Resolution : 24 bits
Colorimetry : 4:2:0
Scan type : Progressive
Bits/(Pixel*Frame) : 0.284
Stream size : 1.09 GiB (80%)
Writing library : XviD 1.2.1 (UTC 2008-12-04)
Audio #1
ID : 1
Format : AC-3
Format/Info : Audio Coding 3
Codec ID : 2000
Duration : 1h 25mn
Bit rate mode : Constant
Bit rate : 448 Kbps
Channel(s) : 6 channels
Channel positions : Front: L C R, Surround: L R, LFE
Sampling rate : 48.0 KHz
Stream size : 273 MiB (20%)
Alignment : Split accross interleaves
Interleave, duration : 40 ms (1.00 video frame)
Interleave, preload duration : 500 ms
-
-Релиз подготовлен:

-
-
Download / Скачать

Хотите скачать бесплатно? Зарегистрируйтесь на сайте (ссылка на регистрацию). Pirat.ca - самый быстрый торрент трекер в рунете!

Как скачивать  ·   Что такое торрент  ·   Рейтинг и ограничения

Пост 04-Дек-2011 09:16 (спустя 16 часов)

Топик был перенесен из форума Мультипликация в форум Зарубежные полнометражные мультфильмы

CaptRom
 

CHARLI2236

1089

Пост 30-Окт-2012 12:58 (спустя 10 месяцев 26 дней)

[Q] 

спс

_________________
[Профиль]  [ЛС] 
Показать сообщения:    
Ответить на тему

Текущее время: Сегодня 13:35

Часовой пояс: GMT + 4



Вы не можете начинать темы
Вы не можете отвечать на сообщения
Вы не можете редактировать свои сообщения
Вы не можете удалять свои сообщения
Вы не можете голосовать в опросах
Вы не можете прикреплять файлы к сообщениям
Вы не можете скачивать файлы

▼ Вниз