ML
     
  Уважаемый Гость!
Вы можете поддержать проект и зарегистрироваться у наших партнеров - онлайн-стратегия MyLands. При регистрации в игре Вы получите код, который сможете активировать после регистрации на pirat.ca и получить 1000 дублонов.

Ваш код:
e6008d9811a0b6a1393c3dc51ecd7bc35637bc21
 
     

Как приручить медведя / Den kæmpestore bjørn (Эсбен Тофт Якобсен / Esben Toft Jacobsen) [2011 г., фэнтези, драма, приключения, семейный, DVDRip] (MVO)

Ответить на тему
 
Автор
Сообщение

Пост 03-Дек-2011 17:00

[Q] 

Sirota

Легенда

Как приручить медведя / Den kæmpestore bjørn Год выпуска: 2011
Мировая премьера: 10 февраля 2011
Дата выхода DVD: 23 июня 2011, «CP-Digital»
Производство: Дания
Жанр: фэнтези, драма, приключения, семейный
Продолжительность: 01:13:15
Перевод: профессиональный (многоголосый, закадровый) лицензия
Оригинальный аудиопоток: датский
Режиссер: Эсбен Тофт Якобсен / Esben Toft Jacobsen
В ролях: Маркус Рюгорд
Alberte Blichfeldt
Флемминг Квист Мюллер
Elith Nulle Nykjæ
Описание: Джонатану 11 лет. Каждые летние каникулы он проводит у дедушки, который живет на краю дремучего леса. В этом году компанию ему составит младшая сестра София. За этой непоседой так сложно уследить! Но однажды сестренку похищает гигантский 1000-летний медведь. Джонатан отправляется в самое сердце леса, и хотя у него самого душа уходит в пятки, мальчик намерен вырвать Софию из медвежьих лап. А может быть в зеленой чаще есть кто-то пострашнее косолапого великана?
Доп. информация: сценарий Jannik Tai Mosholt, Эсбен Тофт Якобсен
продюсер Петтер Линдблад, Сарита Кристенсен
оператор -
композитор Никлас Шмидт
художник Andreas Normand Grøntved
монтаж Elin Pröjts, Эсбен Тофт Якобсен, Marion Tuor
Сэмпл, IMDB, КиноПоиск
Источник/Качество: DVDRip
Формат: AVI
Видео кодек: XviD
Аудио кодек: AC3
Видео: 720x400 (1.80:1), 25 fps, XviD MPEG-4 ~1754 kbps avg, 0.24 bit/pixel
Аудио: Русский 48 kHz, AC3 Dolby Digital, 3/2 (L,C,R,l,r) + LFE ch, ~448.00 kbps avg
Аудио #2: Датский 48 kHz, AC3 Dolby Digital, 3/2 (L,C,R,l,r) + LFE ch, ~448.00 kbps avg
Субтитры: нет
General
Format : AVI
Format/Info : Audio Video Interleave
File size : 1.36 GiB
Duration : 1h 13mn
Overall bit rate : 2 666 Kbps
Writing application : VirtualDubMod 1.5.4.1 (build 2178/release)
Writing library : VirtualDubMod build 2178/release
Video #0
ID : 0
Format : MPEG-4 Visual
Format profile : [email protected]
Format settings, BVOP : Yes
Format settings, QPel : No
Format settings, GMC : No warppoints
Format settings, Matrix : Custom
Codec ID : XVID
Codec ID/Hint : XviD
Duration : 1h 13mn
Bit rate : 1 756 Kbps
Width : 720 pixels
Height : 400 pixels
Display aspect ratio : 16:9
Frame rate : 25.000 fps
Resolution : 24 bits
Colorimetry : 4:2:0
Scan type : Progressive
Bits/(Pixel*Frame) : 0.244
Stream size : 920 MiB (66%)
Writing library : XviD 58
Audio #1
ID : 1
Format : AC-3
Format/Info : Audio Coding 3
Codec ID : 2000
Duration : 1h 13mn
Bit rate mode : Constant
Bit rate : 448 Kbps
Channel(s) : 6 channels
Channel positions : Front: L C R, Surround: L R, LFE
Sampling rate : 48.0 KHz
Video delay : 394ms
Stream size : 235 MiB (17%)
Alignment : Split accross interleaves
Interleave, duration : 40 ms (1.00 video frame)
Interleave, preload duration : 500 ms
Audio #2
ID : 2
Format : AC-3
Format/Info : Audio Coding 3
Codec ID : 2000
Duration : 1h 13mn
Bit rate mode : Constant
Bit rate : 448 Kbps
Channel(s) : 6 channels
Channel positions : Front: L C R, Surround: L R, LFE
Sampling rate : 48.0 KHz
Video delay : 394ms
Stream size : 235 MiB (17%)
Alignment : Split accross interleaves
Interleave, duration : 40 ms (1.00 video frame)
Interleave, preload duration : 500 ms
-
-Релиз подготовлен:

-
-
Download / Скачать

Хотите скачать бесплатно? Зарегистрируйтесь на сайте (ссылка на регистрацию). Pirat.ca - самый быстрый торрент трекер в рунете!

Как скачивать  ·   Что такое торрент  ·   Рейтинг и ограничения

Пост 04-Дек-2011 09:16 (спустя 16 часов)

Топик был перенесен из форума Мультипликация в форум Зарубежные полнометражные мультфильмы

CaptRom
 

Пост 04-Дек-2011 09:53 (спустя 16 часов)

Топик был перенесен из форума Зарубежные полнометражные мультфильмы в форум Новинки (HD|DVD|BD|TV|SAT|PDTV| - Rips)

Sirota
 

sergLyghin

Корсар

162

Пост 22-Янв-2012 16:25 (спустя 1 месяц 18 дней)

[Q] 

Спасибо кук мульт
[Профиль]  [ЛС] 

SiT..

Штурман

Пост 25-Янв-2012 20:04 (спустя 3 дня)

[Q] 

Название вызывает мысли о политической обстановке хД
Думаю гляну, как-нибудь)) Спасибо
[Профиль]  [ЛС] 

TOR-rb

Шкипер

Пост 26-Янв-2012 15:52 (спустя 19 часов)

[Q] 

Мне не понравилось
[Профиль]  [ЛС] 

Stormilo

Морской Волк

Пост 27-Янв-2012 00:26 (спустя 8 часов)

[Q] 

Заценим.

_________________
[Профиль]  [ЛС] 

Пост 05-Фев-2012 16:00 (спустя 9 дней)

Топик был перенесен из форума Современное кино (с 2000 г.) в форум Зарубежные полнометражные мультфильмы

Skinwalker
 

dt1

Шкипер

Пост 12-Фев-2012 17:00 (спустя 16 дней)

[Q] 

Спасибо!!!Посмотрим.
[Профиль]  [ЛС] 

SERG_E74

Шкипер

448

Пост 24-Фев-2012 21:24 (спустя 12 дней)

[Q] 

Достойный мульт! Рекомендую!
[Профиль]  [ЛС] 

CHARLI2236

1097

Пост 30-Окт-2012 13:09 (спустя 8 месяцев 5 дней)

[Q] 

спасибо

_________________
[Профиль]  [ЛС] 

Иветта

Лоцман

Пост 27-Июн-2013 18:40 (спустя 7 месяцев 28 дней)

[Q] 

Дочке понравилось. )
[Профиль]  [ЛС] 

ZAMOK

Корсар

Пост 30-Май-2014 22:57 (спустя 11 месяцев 3 дня)

[Q] 

Вдруг и внучку подойдёт. Автору респект!!!

_________________
Не бойся того,с чем не сталкивался.
[Профиль]  [ЛС] 
Показать сообщения:    
Ответить на тему

Текущее время: Сегодня 02:03

Часовой пояс: GMT + 4



Вы не можете начинать темы
Вы не можете отвечать на сообщения
Вы не можете редактировать свои сообщения
Вы не можете удалять свои сообщения
Вы не можете голосовать в опросах
Вы не можете прикреплять файлы к сообщениям
Вы не можете скачивать файлы

▼ Вниз