ML
     
  Уважаемый Гость!
Вы можете поддержать проект и зарегистрироваться у наших партнеров - онлайн-стратегия MyLands. При регистрации в игре Вы получите код, который сможете активировать после регистрации на pirat.ca и получить 1000 дублонов.

Ваш код:
34514219cfad5497a1822ecc1269bea77988f9aa
 
     

Бен 10: Крушение пришельцев / Ben 10: Destroy All Aliens (Виктор Кук / Victor Cook) [2012, мультфильм, приключения, DVB] Dub

Ответить на тему
 
Автор
Сообщение

Пост 22-Мар-2012 15:28

[Q] 

ara1205

Бен 10: Крушение пришельцев / Ben 10: Destroy All Aliens
Страна: США
Жанр: мультфильм, приключения
Продолжительность: 01:09:05
Год выпуска: 2012
Перевод: Профессиональный (дублированный)
Русские субтитры: нет
Режиссёр: Виктор Кук / Victor Cook
Описание: Десятилетний Бен Теннисон возвращается домой с летних каникул и в его обычной жизни происходит полная неразбериха. Его отчитывает учитель, пристают хулиганы, наказывают родители. Плюс ко всему родители не разрешают Бену поехать с дедушкой Максом в долгожданную поездку загород. Бен сбегает от всех проблем в самый дальний уголок галактики и принимает участие в военной программе Тотального погружения в Пришельцев. Бена отправляют обратно на землю теперь в облике пришельца.
Качество: DVB
Формат: mpg
Видео: MPEG2 Video [email protected] (4:3) 25.00fps 2 452 Kbps
Аудио: MPEG Audio 48000Hz stereo 192kbps
Субтитры: отсутствуют
General
Complete name: C:\Ben 10 Destroy All Aliens.mpg
Format: MPEG-PSFile
size: 1.30 GiB
Duration : 1h 9mn
VariableOverall bit rate : 2 698 Kbps
Writing library : (c) 1998-2008
Womble Multimedia, Inc. / MPEG Video Wizard (08/2008) / Sep 23 2008
VideoID
Format : MPEG Video
Format version : Version 2
Format profile : [email protected]
Format settings, BVOP : Yes
Format settings, Matrix : Custom
Duration : 1h 9mn
Bit rate mode : Variable
Bit rate : 2 452 Kbps
Maximum bit rate : 15.0 Mbps
Width : 720 pixels
Height : 576 pixels
Display aspect ratio : 4:3
Frame rate : 25.000 fps
Standard : PAL
Color space : YUV
Chroma subsampling : 4:2:0
Bit depth : 8 bits
Scan type : Interlaced
Scan order : Top Field First
Compression mode : Lossy
Bits/(Pixel*Frame) : 0.236
Stream size : 1.18 GiB (91%)
Writing library : (c) 1998-2008 Womble Multimedia, Inc. / MPEG Video Wizard (08/2008) / Sep 23 2008
AudioID : 192 (0xC0)
Format : MPEG Audio
Format version : Version 1
Format profile : Layer 2
Duration : 1h 9mn
Bit rate mode : Constant
Bit rate : 192 Kbps
Channel(s) : 2 channels
Sampling rate : 48.0 KHz
Compression mode : Lossy
Delay relative to video : -40ms
Stream size : 94.9 MiB (7%)
Menu
Download / Скачать

Хотите скачать бесплатно? Зарегистрируйтесь на сайте (ссылка на регистрацию). Pirat.ca - самый быстрый торрент трекер в рунете!

Как скачивать  ·   Что такое торрент  ·   Рейтинг и ограничения



Последний раз редактировалось: ara1205 (2012-03-22 15:48), всего редактировалось 1 раз

Пост 22-Мар-2012 16:58 (спустя 1 час 30 минут)

Топик был перенесен из форума Мультипликация в форум Новинки (HD|DVD|BD|TV|SAT|PDTV| - Rips)

Linnan
 

dimonpa

Гроза морей

Пост 22-Мар-2012 17:01 (спустя 1 час 33 минуты)

[Q] 

[Профиль]  [ЛС] 

leonid.

Флибустьер

Пост 22-Мар-2012 17:37 (спустя 36 минут)

[Q] 

а сид где?
[Профиль]  [ЛС] 

leonid.

Флибустьер

Пост 22-Мар-2012 22:25 (спустя 4 часа)

[Q] 

спасибо за мульт.
[Профиль]  [ЛС] 

nokia_series

Корсар

Пост 25-Мар-2012 18:12 (спустя 2 дня 19 часов)

[Q] 

какая то какЭ
[Профиль]  [ЛС] 

Пост 26-Апр-2012 14:49 (спустя 1 месяц)

Топик был перенесен из форума Новинки (HD|DVD|BD|TV|SAT|PDTV| - Rips) в форум Зарубежные полнометражные мультфильмы

ara1205
 

Iliaomsk

Морской Волк

127

Пост 17-Июн-2012 10:05 (спустя 2 месяца 22 дня)

[Q] 

[Профиль]  [ЛС] 

t101thegod

Штурман

Пост 10-Июн-2013 22:24 (спустя 11 месяцев 23 дня)

[Q] 


_________________
Привет в обед
[Профиль]  [ЛС] 

xlSior

Шкипер

Пост 04-Июл-2013 11:32 (спустя 23 дня)

[Q] 

[Профиль]  [ЛС] 

xlSior

Шкипер

Пост 04-Июл-2013 13:17 (спустя 1 час 45 минут)

[Q] 

что-то очень медлено качается, встаньте кто-нибудь еще на раздачу, пож.
Сынишка извелся уже ждать
[Профиль]  [ЛС] 
Показать сообщения:    
Ответить на тему

Текущее время: Сегодня 07:48

Часовой пояс: GMT + 4



Вы не можете начинать темы
Вы не можете отвечать на сообщения
Вы не можете редактировать свои сообщения
Вы не можете удалять свои сообщения
Вы не можете голосовать в опросах
Вы не можете прикреплять файлы к сообщениям
Вы не можете скачивать файлы

▼ Вниз