ML
     
  Уважаемый Гость!
Вы можете поддержать проект и зарегистрироваться у наших партнеров - онлайн-стратегия MyLands. При регистрации в игре Вы получите код, который сможете активировать после регистрации на pirat.ca и получить 1000 дублонов.

Ваш код:
fcd618d94adc1456bccbde5047c9cd0930e4ae4d
 
     

Смывайся / Flushed Away (Дэвид Бауэрс, Сэм Фелл / David Bowers, Sam Fell) [2006 г., комедия, приключения, семейный, HDTVRip] (Dub)

Ответить на тему
 
Автор
Сообщение

Пост 03-Дек-2011 17:32

[Q] 

Sirota

Легенда

Смывайся / Flushed Away Год выпуска: 2006
Мировая премьера: 22 октября 2006
Российская премьера: 2 ноября 2006, «UIP»
Дата выхода DVD: 21 апреля 2011, «ВС трейд»
Производство: США Великобритания
Жанр: комедия, приключения, семейный
Продолжительность: 01:21:06
Перевод: профессиональный (полное дублирование)
Автор(ы) перевода: Иван Ургант, Яна Чурикова, Борис Клюев, Владимир Антоник, Лиза Мартиросова
Режиссер: Дэвид Бауэрс, Сэм Фелл / David Bowers, Sam Fell
В ролях: Хью Джекман
Кейт Уинслет
Иэн МакКеллен
Жан Рено
Билл Найи
Энди Серкис
Шэйн Ричи
Кэти Бёрк
Дэвид Суше
Мириам Марголис
Описание: Родди — привилегированная крыса, живущая жизнью любимого домашнего животного в престижном пентхаусе. Однажды засорившаяся раковина «выплевывает» в квартиру канализационную крысу Сида, которому приходятся по душе роскошные апартаменты.
Чтобы избавиться от надоедливого гостя, Родди решает смыть его в унитаз, но житель канализации не такой простак, каким кажется, и в итоге в унитазе оказывается сам Родди. Попав в канализацию, ему предстоит привыкнуть к совершенно новой, незнакомой ему жизни…
Доп. информация: сценарий Сэм Фелл, Саймон Най, Пол Фишер,
продюсер Марианн Гарджер, Сесил Крамер, Питер Лорд,
оператор Брэд Блэкборн, Фрэнк Пэссингем
композитор Гарри Грегсон-Уильямс
художник Дэвид Джеймс, Пьер-Оливье Винсент, Скотт Уиллс,
монтаж Эрик Дапкевич, Джон Вензон
бюджет $149 000 000
сборы в США $64 488 856
сборы в мире + $111 812 767 = $176 301 623
сборы в России $5 897 434

Сэмпл, IMDB, КиноПоиск
Источник/Качество: HDTVRip
Формат: AVI
Видео кодек: XviD
Аудио кодек: AC3
Видео: 720x384 (1.88:1), 25 fps, XviD build 64 ~2176 kbps avg, 0.32 bit/pixel
Аудио: 48 kHz, AC3 Dolby Digital, 3/2 (L,C,R,l,r) + LFE ch, ~384.00 kbps avg
Субтитры: нет
Британская академия, 2007 год
Номинации (1):
Лучший анимационный фильм
Сатурн, 2007 год
Номинации (1):
Лучший анимационный фильм
General
Format : AVI
Format/Info : Audio Video Interleave
File size : 1.46 GiB
Duration : 1h 21mn
Overall bit rate : 2 570 Kbps
Writing application : VirtualDubMod 1.5.10.3 (build 2550/release)
Writing library : VirtualDubMod build 2550/release
Video #0
ID : 0
Format : MPEG-4 Visual
Format profile : [email protected]
Format settings, BVOP : Yes
Format settings, QPel : No
Format settings, GMC : No warppoints
Format settings, Matrix : Custom
Codec ID : XVID
Codec ID/Hint : XviD
Duration : 1h 21mn
Bit rate : 2 177 Kbps
Width : 720 pixels
Height : 384 pixels
Display aspect ratio : 1.875
Frame rate : 25.000 fps
Resolution : 24 bits
Colorimetry : 4:2:0
Scan type : Progressive
Bits/(Pixel*Frame) : 0.315
Stream size : 1.23 GiB (85%)
Writing library : XviD 64
Audio #1
ID : 1
Format : AC-3
Format/Info : Audio Coding 3
Codec ID : 2000
Duration : 1h 21mn
Bit rate mode : Constant
Bit rate : 384 Kbps
Channel(s) : 6 channels
Channel positions : Front: L C R, Surround: L R, LFE
Sampling rate : 48.0 KHz
Stream size : 223 MiB (15%)
Alignment : Split accross interleaves
Interleave, duration : 40 ms (1.00 video frame)
Interleave, preload duration : 500 ms
-
-Релиз подготовлен:

-
-
Download / Скачать

Хотите скачать бесплатно? Зарегистрируйтесь на сайте (ссылка на регистрацию). Pirat.ca - самый быстрый торрент трекер в рунете!

Как скачивать  ·   Что такое торрент  ·   Рейтинг и ограничения

Пост 04-Дек-2011 09:15 (спустя 15 часов)

Топик был перенесен из форума Мультипликация в форум Зарубежные полнометражные мультфильмы

CaptRom
 

CHARLI2236

1097

Пост 30-Окт-2012 13:34 (спустя 10 месяцев 26 дней)

[Q] 

спс

_________________
[Профиль]  [ЛС] 
Показать сообщения:    
Ответить на тему

Текущее время: Сегодня 12:49

Часовой пояс: GMT + 4



Вы не можете начинать темы
Вы не можете отвечать на сообщения
Вы не можете редактировать свои сообщения
Вы не можете удалять свои сообщения
Вы не можете голосовать в опросах
Вы не можете прикреплять файлы к сообщениям
Вы не можете скачивать файлы

▼ Вниз