ML
     
  Уважаемый Гость!
Вы можете поддержать проект и зарегистрироваться у наших партнеров - онлайн-стратегия MyLands. При регистрации в игре Вы получите код, который сможете активировать после регистрации на pirat.ca и получить 1000 дублонов.

Ваш код:
ca44e9295b9b8527ba1c339c20494f70782efea6
 
     

Шевели ластами! / Sammy's avonturen: De geheime doorgang (Бен Стассен / Ben Stassen) [2010 г., комедия, приключения, семейный, DVDRip] (Dub)

Ответить на тему
 
Автор
Сообщение

Пост 03-Дек-2011 18:05

[Q] 

Sirota

Легенда

Шевели ластами! / Sammy's avonturen: De geheime doorgang Год выпуска: 2010
Мировая премьера: 4 августа 2010
Российская премьера: 19 августа 2010, «Каскад»
Дата выхода DVD: 14 октября 2010, «CP-Digital»
Производство: Бельгия
Жанр: комедия, приключения, семейный
Продолжительность: 01:10:31
Перевод: профессиональный (полное дублирование) лицензия
Автор(ы) перевода: Максим Аверин, Тимур Родригез
Режиссер: Бен Стассен / Ben Stassen
В ролях: Мелани Гриффит
Изабелль Фюрман
Юрий Ловенталь
Энтони Андерсон
Джемма Артертон
Сидни Хоуп Баннер
Эд Бегли мл.
Даррен Капоцци
Пэт Кэрролл
Крис Эндрю Кулла
Описание: Для маленькой черепашки подводный мир — самое безопасное место. Здесь акулы, пираньи, змеи, а на берегу поджидают люди. И наш маленький Сэмми хочет узнать весь мир, от полярных льдов до субтропиков. Путешествие продлится ровно полвека, начиная с 1959 года, за это время даже климат успеет измениться.
Доп. информация: продюсер Джина Галло, Мими Мэйнард, Домоник Парис,
композитор Рамин Джавади
художник Джереми Дегрусон
Сэмпл, IMDB, КиноПоиск
Источник/Качество: DVDRip
Формат: AVI
Видео кодек: XviD
Аудио кодек: AC3
Видео: 720x320 (2.25:1), 25 fps, XviD build 50 ~2311 kbps avg, 0.40 bit/pixel
Аудио: 48 kHz, AC3 Dolby Digital, 3/2 (L,C,R,l,r) + LFE ch, ~448.00 kbps avg
Субтитры: нет
Европейская киноакадемия, 2010 год
Номинации (1):
Лучший анимационный фильм
General
Format : AVI
Format/Info : Audio Video Interleave
File size : 1.36 GiB
Duration : 1h 10mn
Overall bit rate : 2 770 Kbps
Writing application : VirtualDubMod 1.5.10.2 (build 2540/release)
Writing library : VirtualDubMod build 2540/release
Video #0
ID : 0
Format : MPEG-4 Visual
Format profile : [email protected]
Format settings, BVOP : Yes
Format settings, QPel : No
Format settings, GMC : No warppoints
Format settings, Matrix : Custom
Codec ID : XVID
Codec ID/Hint : XviD
Duration : 1h 10mn
Bit rate : 2 312 Kbps
Width : 720 pixels
Height : 320 pixels
Display aspect ratio : 2.25:1
Frame rate : 25.000 fps
Resolution : 24 bits
Colorimetry : 4:2:0
Scan type : Progressive
Bits/(Pixel*Frame) : 0.401
Stream size : 1.14 GiB (83%)
Writing library : XviD 1.2.1 (UTC 2008-12-04)
Audio #1
ID : 1
Format : AC-3
Format/Info : Audio Coding 3
Codec ID : 2000
Duration : 1h 10mn
Bit rate mode : Constant
Bit rate : 448 Kbps
Channel(s) : 6 channels
Channel positions : Front: L C R, Surround: L R, LFE
Sampling rate : 48.0 KHz
Stream size : 226 MiB (16%)
Alignment : Split accross interleaves
Interleave, duration : 40 ms (1.00 video frame)
Interleave, preload duration : 500 ms
-
-Релиз подготовлен:

-
-
Download / Скачать

Хотите скачать бесплатно? Зарегистрируйтесь на сайте (ссылка на регистрацию). Pirat.ca - самый быстрый торрент трекер в рунете!

Как скачивать  ·   Что такое торрент  ·   Рейтинг и ограничения

Пост 04-Дек-2011 09:15 (спустя 15 часов)

Топик был перенесен из форума Мультипликация в форум Зарубежные полнометражные мультфильмы

CaptRom
 

CHARLI2236

1089

Пост 30-Окт-2012 13:44 (спустя 10 месяцев 26 дней)

[Q] 

спс

_________________
[Профиль]  [ЛС] 

diozzy13

Корсар

Пост 06-Янв-2013 01:26 (спустя 2 месяца 6 дней)

[Q] 

Очень форошиймультик, ребёноксмотрит с удовольствием

_________________
-Who is Zed?
-Zed is dead,baby.
[Профиль]  [ЛС] 

trogvar_10

Корсар

38

Пост 16-Янв-2013 16:34 (спустя 10 дней)

[Q] 

[Профиль]  [ЛС] 
Показать сообщения:    
Ответить на тему

Текущее время: Сегодня 16:13

Часовой пояс: GMT + 4



Вы не можете начинать темы
Вы не можете отвечать на сообщения
Вы не можете редактировать свои сообщения
Вы не можете удалять свои сообщения
Вы не можете голосовать в опросах
Вы не можете прикреплять файлы к сообщениям
Вы не можете скачивать файлы

▼ Вниз