ML
     
  Уважаемый Гость!
Вы можете поддержать проект и зарегистрироваться у наших партнеров - онлайн-стратегия MyLands. При регистрации в игре Вы получите код, который сможете активировать после регистрации на pirat.ca и получить 1000 дублонов.

Ваш код:
a978488e62322cd72e113ab723b8a7fdc10eb9b9
 
     

Битва за планету Терра / Battle for Terra (Аристоменис Тсирбас / Aristomenis Tsirbas) [2007 г., фантастика, боевик, приключения, военный, BDRip] (Dub)

Ответить на тему
 
Автор
Сообщение

Пост 03-Дек-2011 18:36

[Q] 

Sirota

Легенда

Битва за планету Терра / Battle for Terra
Год выпуска: 2007
Мировая премьера: 8 сентября 2007
Российская премьера: 14 мая 2009, «Люксор»
Дата выхода DVD: 4 июня 2009, «Флагман-Трейд»
Производство: США
Жанр: фантастика, боевик, приключения, военный
Продолжительность: 01:19:39
Перевод: профессиональный (полное дублирование) + оригинал
Оригинальный аудиопоток: Английский
Автор(ы) перевода: Сергей Степанченко, Вячеслав Гришечкин, Александр Клюквин, Александр Комлев, Евгений Стычкин
Режиссер: Аристоменис Тсирбас / Aristomenis Tsirbas
В ролях: Чед Аллен
Розанна Аркетт
Билл Бирч
Брук Блум
Том Коннолли
Брайан Кокс
Дэвид Кросс
Беверли Д’Анджело
Джим Девоти
Крис Эванс
Описание: исколесили Галактику, чтобы найти себе новый дом. Прекрасная планета Терра стала надеждой людей на спасение. Хитроумное устройство землян Терраформер должен превратить Терру в рай для людей и кошмар для коренных жителей. Катастрофа для террианцев неизбежна, они обречены.
Счет идет на дни и часы. И все бы шло по плану, если не одна случайность. Девочка с Терры Молу подбирает раненого пилота — землянина. Они становятся лучшими друзьями и вместе находят хитрый способ спасти Терру — последнюю живую планету Галактики. Они не подозревают, что сразу окажутся в центре бурных, опасных, веселых и удивительных событий…
Доп. информация: сценарий Эван Спилиотопулос, Аристоменис Тсирбас
продюсер Кейт Калдер, Райан Коллуччи, Дэйн Аллан Смит,
оператор Аристоменис Тсирбас
композитор Абель Корженевски
художник Аристоменис Тсирбас
монтаж Дж. Кэтлин Гибсон
бюджет $30 000 000
сборы в США $1 647 083
сборы в мире + $4 453 963 = $6 101 046

Сэмпл, IMDB, КиноПоиск
Источник/Качество: BDRip
Формат: AVI
Видео кодек: XviD
Аудио кодек: AC3
Видео: 720x304 (2.37:1), 23.976 fps, XviD build 50 ~1764 kbps avg, 0.34 bit/pixel
Аудио: Rus 48 kHz, AC3 Dolby Digital, 3/2 (L,C,R,l,r) + LFE ch, ~448.00 kbps avg
Аудио #2: Eng 48 kHz, AC3 Dolby Digital, 3/2 (L,C,R,l,r) + LFE ch, ~384.00 kbps avg
Субтитры: нет
General
Format : AVI
Format/Info : Audio Video Interleave
File size : 1.45 GiB
Duration : 1h 19mn
Overall bit rate : 2 611 Kbps
Movie name : Битва за планету Терра / Battle for Terra (2007) BDRip
Director : Serval
Writing application : VirtualDubMod 1.5.10.2 (build 2542/release)
Copyright : www.forum.hellywood.ru
Comment : 20.03.2010
Video #0
ID : 0
Format : MPEG-4 Visual
Format profile : [email protected]
Format settings, BVOP : Yes
Format settings, QPel : No
Format settings, GMC : No warppoints
Format settings, Matrix : Default (MPEG)
Codec ID : XVID
Codec ID/Hint : XviD
Duration : 1h 19mn
Bit rate : 1 765 Kbps
Width : 720 pixels
Height : 304 pixels
Display aspect ratio : 2.35:1
Frame rate : 23.976 fps
Resolution : 24 bits
Colorimetry : 4:2:0
Scan type : Progressive
Bits/(Pixel*Frame) : 0.336
Stream size : 1 006 MiB (68%)
Writing library : XviD 1.2.1 (UTC 2008-12-04)
Audio #1
ID : 1
Format : AC-3
Format/Info : Audio Coding 3
Codec ID : 2000
Duration : 1h 19mn
Bit rate mode : Constant
Bit rate : 448 Kbps
Channel(s) : 6 channels
Channel positions : Front: L C R, Surround: L R, LFE
Sampling rate : 48.0 KHz
Stream size : 255 MiB (17%)
Alignment : Split accross interleaves
Interleave, duration : 42 ms (1.00 video frame)
Interleave, preload duration : 500 ms
Audio #2
ID : 2
Format : AC-3
Format/Info : Audio Coding 3
Codec ID : 2000
Duration : 1h 19mn
Bit rate mode : Constant
Bit rate : 384 Kbps
Channel(s) : 6 channels
Channel positions : Front: L C R, Surround: L R, LFE
Sampling rate : 48.0 KHz
Stream size : 219 MiB (15%)
Alignment : Split accross interleaves
Interleave, duration : 42 ms (1.00 video frame)
Interleave, preload duration : 500 ms
-
-Релиз подготовлен:

-
-
Download / Скачать

Хотите скачать бесплатно? Зарегистрируйтесь на сайте (ссылка на регистрацию). Pirat.ca - самый быстрый торрент трекер в рунете!

Как скачивать  ·   Что такое торрент  ·   Рейтинг и ограничения



Последний раз редактировалось: Sirota (2011-12-03 19:48), всего редактировалось 1 раз

Пост 04-Дек-2011 09:15 (спустя 14 часов)

Топик был перенесен из форума Мультипликация в форум Зарубежные полнометражные мультфильмы

CaptRom
 

CHARLI2236

1096

Пост 30-Окт-2012 12:53 (спустя 10 месяцев 26 дней)

[Q] 

спасибочки

_________________
[Профиль]  [ЛС] 

UncleFather

Легенда

Пост 23-Мар-2013 09:59 (спустя 4 месяца 23 дня)

[Q] 


_________________
Одни боялись Пью, другие - Билли Бонса, а меня... меня боялся сам Флинт
[Профиль]  [ЛС] 

Alexe10

Гроза морей

36

Пост 23-Окт-2014 06:53 (спустя 1 год 6 месяцев)

[Q] 

Одобрямс!
[Профиль]  [ЛС] 

SlaG

Шкипер

33

Пост 05-Дек-2015 10:54 (спустя 1 год 1 месяц)

[Q] 

Спасибо!!! Лови бочку
[Профиль]  [ЛС] 
Показать сообщения:    
Ответить на тему

Текущее время: Сегодня 22:09

Часовой пояс: GMT + 4



Вы не можете начинать темы
Вы не можете отвечать на сообщения
Вы не можете редактировать свои сообщения
Вы не можете удалять свои сообщения
Вы не можете голосовать в опросах
Вы не можете прикреплять файлы к сообщениям
Вы не можете скачивать файлы

▼ Вниз