ML
     
  Уважаемый Гость!
Вы можете поддержать проект и зарегистрироваться у наших партнеров - онлайн-стратегия MyLands. При регистрации в игре Вы получите код, который сможете активировать после регистрации на pirat.ca и получить 1000 дублонов.

Ваш код:
c3360d664ceb84802c84b88ed062a5d134e2ba97
 
     

Мулан / Mulan (Тони Бэнкрофт, Бэрри Кук / Tony Bancroft, Barry Cook) [1998 г., мультфильм, мюзикл, драма, приключения, семейный, HDRip-AVC] Dub (Лицензия) [internal release]

Ответить на тему
 
Автор
Сообщение

Пост 25-Мар-2012 10:37

[Q] 

zyyx

--Мулан / Mulan
«The flower that blooms in adversity is the most rare and beautiful of all.»
-- Год выпуска: 1998
Мировая премьера: 5 июня 1998
Российская премьера: 25 декабря 1998
Дата выхода DVD: 17 августа 2010, «ВС трейд»
Производство: США
Жанр: мультфильм, мюзикл, драма, приключения, семейный
Продолжительность: 01:27:43
Перевод: Профессиональный (полное дублирование) [Лицензия]
Оригинальный аудиопоток: английский
Субтитры: отсутствуют
Режиссер: Тони Бэнкрофт, Бэрри Кук / Tony Bancroft, Barry Cook
В ролях
Эдди Мёрфи, Лиа Салонга, Мигель Феррер, Харви Фирштейн, Фреда Фо Шен, Джун Форэй, Джеймс Хонг, Мириам Марголис, Пэт Морита, Марни Никсон
Описание
Для великого народа наступили тяжелые времена: на страну напало воинственное племя гуннов. Переодевшись в мужскую одежду, Мулан присоединяется к другим воинам и отправляется в опасный поход к подножию заснеженных гор. Ее сопровождает забавный дракончик Мушу, который больше похож на маленькую собачку, чем на мифическое чудовище.
Пытаясь скрыть тайну, они попадают в забавные ситуации и не подозревают, что их секрет вот — вот раскроется!…
Источник/Качество: HDRip-AVC | Сэмпл
Формат: MKV
Видео кодек: H.264
Аудио кодек: AC3
Видео: 1008x544, 23.976 fps, 1745 Kbps, 0.133 bit/pixel
Аудио: 48.0 KHz, 6 ch, 320 Kbps Rus/Eng
General
Unique ID : 187959782052484201805371197791249110724 (0x8D67BCBD0A83759BBB34300ED5E416C4)
Complete name : K:\zyyx\Mulan.1998.HDRip-AVC.zyyx.mkv
Format : Matroska
Format version : Version 2
File size : 1.46 GiB
Duration : 1h 27mn
Overall bit rate : 2 383 Kbps
Movie name : Mulan 1998 - Release for zyyx
Encoded date : UTC 2012-03-25 06:08:48
Writing application : mkvmerge v5.0.1 ('Es ist Sommer') built on Nov 6 2011 16:23:40
Writing library : libebml v1.2.2 + libmatroska v1.3.0
Video
ID : 1
Format : AVC
Format/Info : Advanced Video Codec
Format profile : [email protected]
Format settings, CABAC : Yes
Format settings, ReFrames : 16 frames
Muxing mode : Header stripping
Codec ID : V_MPEG4/ISO/AVC
Duration : 1h 27mn
Bit rate : 1 745 Kbps
Width : 1 008 pixels
Height : 544 pixels
Display aspect ratio : 1.853
Frame rate : 23.976 fps
Color space : YUV
Chroma subsampling : 4:2:0
Bit depth : 8 bits
Scan type : Progressive
Bits/(Pixel*Frame) : 0.133
Stream size : 1.04 GiB (71%)
Writing library : x264 core 114 r1924 08d04a4
Audio #1
ID : 2
Format : AC-3
Format/Info : Audio Coding 3
Mode extension : CM (complete main)
Muxing mode : Header stripping
Codec ID : A_AC3
Duration : 1h 27mn
Bit rate mode : Constant
Bit rate : 320 Kbps
Channel(s) : 6 channels
Channel positions : Front: L C R, Side: L R, LFE
Sampling rate : 48.0 KHz
Bit depth : 16 bits
Compression mode : Lossy
Stream size : 201 MiB (13%)
Default : Yes
Forced : No
Audio #2
ID : 3
Format : AC-3
Format/Info : Audio Coding 3
Mode extension : CM (complete main)
Muxing mode : Header stripping
Codec ID : A_AC3
Duration : 1h 27mn
Bit rate mode : Constant
Bit rate : 320 Kbps
Channel(s) : 6 channels
Channel positions : Front: L C R, Side: L R, LFE
Sampling rate : 48.0 KHz
Bit depth : 16 bits
Compression mode : Lossy
Stream size : 201 MiB (13%)
Default : No
Forced : No






Download / Скачать

Хотите скачать бесплатно? Зарегистрируйтесь на сайте (ссылка на регистрацию). Pirat.ca - самый быстрый торрент трекер в рунете!

Как скачивать  ·   Что такое торрент  ·   Рейтинг и ограничения

Пост 25-Мар-2012 10:41 (спустя 3 минуты)

Топик был перенесен из форума Мультипликация в форум Мультфильмы (HD DVD и Blu-ray)

Linnan
 

srade

Морской Волк

511

Пост 25-Мар-2012 12:32 (спустя 1 час 54 минуты)

[Q] 

[Профиль]  [ЛС] 

leonid.

Флибустьер

Пост 25-Мар-2012 17:51 (спустя 5 часов)

[Q] 

спасибо.
[Профиль]  [ЛС] 

ficus42

Корсар

Пост 26-Мар-2012 10:04 (спустя 16 часов)

[Q] 

Будем посмотреть.
[Профиль]  [ЛС] 

wirtual

Гроза морей

Пост 27-Мар-2012 19:11 (спустя 1 день 9 часов)

[Q] 


_________________
не будешь делиться - останешься одноклеточным
[Профиль]  [ЛС] 

zpSaid

123

Пост 12-Апр-2012 23:25 (спустя 16 дней)

[Q] 

Зачетный мультик!
СПАСИБО!

_________________
Джавдет трус! Абдула воин!
[Профиль]  [ЛС] 

Woitler

Корсар

650

Пост 04-Май-2012 13:03 (спустя 21 день)

[Q] 

Спасибо за раздачу.
Ах да, и дайте пожалуйста скорости!
[Профиль]  [ЛС] 

MorningBuk

Лоцман

Пост 27-Авг-2012 01:17 (спустя 3 месяца 22 дня)

[Q] 

Скорости пожалуйста!)
[Профиль]  [ЛС] 

Wolf111

57136

Пост 12-Сен-2012 16:04 (спустя 16 дней)

[Q] 

Помогу с раздачей
[Профиль]  [ЛС] 

iuotkach

Морской Волк

Пост 14-Сен-2012 19:28 (спустя 2 дня 3 часа)

[Q] 

[Профиль]  [ЛС] 

phaeton77

Корсар

Пост 15-Сен-2012 13:38 (спустя 18 часов)

[Q] 

[Профиль]  [ЛС] 

Элизиотта

Морской Волк

329

Пост 07-Окт-2012 12:07 (спустя 21 день)

[Q] 

Один из самых лучших мультфильмов)
[Профиль]  [ЛС] 

GuT_SpIt

Шкипер

Пост 19-Дек-2012 21:13 (спустя 2 месяца 12 дней)

[Q] 

[Профиль]  [ЛС] 

Анна 341662

Корсар

11

Пост 31-Янв-2013 18:19 (спустя 1 месяц 11 дней)

[Q] 

Спасииибо!!!!!!!!!
[Профиль]  [ЛС] 
Показать сообщения:    
Ответить на тему

Текущее время: Сегодня 10:06

Часовой пояс: GMT + 4



Вы не можете начинать темы
Вы не можете отвечать на сообщения
Вы не можете редактировать свои сообщения
Вы не можете удалять свои сообщения
Вы не можете голосовать в опросах
Вы не можете прикреплять файлы к сообщениям
Вы не можете скачивать файлы

▼ Вниз