ML
     
  Уважаемый Гость!
Вы можете поддержать проект и зарегистрироваться у наших партнеров - онлайн-стратегия MyLands. При регистрации в игре Вы получите код, который сможете активировать после регистрации на pirat.ca и получить 1000 дублонов.

Ваш код:
8dcb839cf1b47e56d6dc42d17f26b3e4822e9aee
 
     

Анастасия / Anastasia (Дон Блут, Гари Голдман / Don Bluth, Gary Goldman) [1997 г., мультфильм, мюзикл, фэнтези, драма, приключения, семейный, BDRip-AVC] Dub (Лицензия) [internal release]

Ответить на тему
 
Автор
Сообщение

Пост 25-Мар-2012 18:21

[Q] 

zyyx

--Анастасия / Anastasia
«Discover the Adventure Behind the Greatest Mystery of Our Time»
-- Год выпуска: 1997
Мировая премьера: 14 ноября 1997
Российская премьера: 13 марта 1998, «Гемини Киномир»
Дата выхода DVD: 12 февраля 2009, «Двадцатый Век Фокс СНГ»
Дата выхода Blu-Ray: 7 апреля 2011, «Двадцатый Век Фокс СНГ»
Производство: США
Жанр: мультфильм, мюзикл, фэнтези, драма, приключения, семейный
Продолжительность: 01:34:11
Перевод: Профессиональный (полное дублирование) [Лицензия]
Субтитры: отсутствуют
Режиссер: Дон Блут, Гари Голдман / Don Bluth, Gary Goldman
В ролях
Мег Райан, Джон Кьюсак, Келси Грэммер, Кристофер Ллойд, Хэнк Азария, Бернадетт Питерс, Кирстен Данст, Анджела Лэнсбери, Рик Джонс, Андреа Мартин
Описание
Анастасия — дочка последнего русского царя Николая, погубленного зловещим Распутиным. Ей удается спастись, добраться вместе с бабушкой до переполненного вокзала и… потеряться в толпе. Проходит десять лет. Анастасия стала взрослой красавицей и теперь хочет попасть в Париж. Сможет ли царевна осуществить задуманное? Ведь Распутин уже поднялся из своей могилы…
Источник/Качество: BDRip-AVC | Сэмпл
Формат: MKV
Видео кодек: H.264
Аудио кодек: AC3
Видео: 1024x436, 23.976 fps, 1836 Kbps, 0.172 bit/pixel
Аудио: 48.0 KHz, 6 ch, 384 Kbps
General
Unique ID : 248715949238891828034760161476840046435 (0xBB1CF30DC07E47959C0EBC2A82C4BF63)
Complete name : K:\zyyx\Anastasia.1997.BDRip-AVC.zyyx.mkv
Format : Matroska
Format version : Version 2
File size : 1.46 GiB
Duration : 1h 34mn
Overall bit rate : 2 221 Kbps
Movie name : Anastasia 1997 - Release for zyyx
Encoded date : UTC 2012-03-25 14:15:52
Writing application : mkvmerge v5.0.1 ('Es ist Sommer') built on Nov 6 2011 16:23:40
Writing library : libebml v1.2.2 + libmatroska v1.3.0
Video
ID : 1
Format : AVC
Format/Info : Advanced Video Codec
Format profile : [email protected]
Format settings, CABAC : Yes
Format settings, ReFrames : 16 frames
Muxing mode : Header stripping
Codec ID : V_MPEG4/ISO/AVC
Duration : 1h 34mn
Bit rate : 1 836 Kbps
Width : 1 024 pixels
Height : 436 pixels
Display aspect ratio : 2.35:1
Frame rate : 23.976 fps
Color space : YUV
Chroma subsampling : 4:2:0
Bit depth : 8 bits
Scan type : Progressive
Bits/(Pixel*Frame) : 0.172
Stream size : 1.18 GiB (81%)
Writing library : x264 core 119 r2106 07efeb4
Default : Yes
Forced : No
Audio
ID : 2
Format : AC-3
Format/Info : Audio Coding 3
Mode extension : CM (complete main)
Muxing mode : Header stripping
Codec ID : A_AC3
Duration : 1h 34mn
Bit rate mode : Constant
Bit rate : 384 Kbps
Channel(s) : 6 channels
Channel positions : Front: L C R, Side: L R, LFE
Sampling rate : 48.0 KHz
Bit depth : 16 bits
Compression mode : Lossy
Stream size : 259 MiB (17%)
Default : Yes
Forced : No





Download / Скачать

Хотите скачать бесплатно? Зарегистрируйтесь на сайте (ссылка на регистрацию). Pirat.ca - самый быстрый торрент трекер в рунете!

Как скачивать  ·   Что такое торрент  ·   Рейтинг и ограничения

Пост 25-Мар-2012 18:58 (спустя 37 минут)

Топик был перенесен из форума Мультипликация в форум Зарубежные полнометражные мультфильмы

erchine
 

Vlad__treker

Морской Волк

184

Пост 25-Мар-2012 20:26 (спустя 2 часа 5 минут)

[Q] 


_________________
...:::Pirat.ca:::...
..:::The Best:::...
[Профиль]  [ЛС] 

jumpersky

Легенда

Пост 25-Мар-2012 23:04 (спустя 2 часа 37 минут)

[Q] 

[Профиль]  [ЛС] 

vovafatyan

Лоцман

Пост 11-Июн-2012 15:23 (спустя 2 месяца 16 дней)

[Q] 

Спасибо!!!
[Профиль]  [ЛС] 

Слотин.С

Штурман

Пост 14-Апр-2013 14:10 (спустя 10 месяцев 2 дня)

[Q] 

помоги с анастосией
[Профиль]  [ЛС] 

Слотин.С

Штурман

Пост 14-Апр-2013 15:33 (спустя 1 час 23 минуты)

[Q] 

zyyx, скорость?
[Профиль]  [ЛС] 

vichnja

Лоцман

Пост 14-Апр-2013 22:18 (спустя 6 часов)

[Q] 

[Профиль]  [ЛС] 

vichnja

Лоцман

Пост 01-Июл-2013 18:50 (спустя 2 месяца 16 дней)

[Q] 

[Профиль]  [ЛС] 

black kat

Лоцман

Пост 08-Июл-2013 13:06 (спустя 6 дней)

[Q] 

СПАСИБО!!!!!!!!!!!!!!!!
[Профиль]  [ЛС] 
Показать сообщения:    
Ответить на тему

Текущее время: Сегодня 04:18

Часовой пояс: GMT + 4



Вы не можете начинать темы
Вы не можете отвечать на сообщения
Вы не можете редактировать свои сообщения
Вы не можете удалять свои сообщения
Вы не можете голосовать в опросах
Вы не можете прикреплять файлы к сообщениям
Вы не можете скачивать файлы

▼ Вниз