ML
     
  Уважаемый Гость!
Вы можете поддержать проект и зарегистрироваться у наших партнеров - онлайн-стратегия MyLands. При регистрации в игре Вы получите код, который сможете активировать после регистрации на pirat.ca и получить 1000 дублонов.

Ваш код:
c89b4b6523eaac3173e9a9c062ac1a19db575961
 
     

Монстры против пришельцев / Monsters vs Aliens (Роб Леттерман, Конрад Вернон / Rob Letterman, Conrad Vernon) [2009 г., фантастика, боевик, комедия, приключения, семейный, BDRip] (Dub)

Ответить на тему
 
Автор
Сообщение

Пост 03-Дек-2011 21:04

[Q] 

Sirota

Легенда

Монстры против пришельцев / Monsters vs Aliens Год выпуска: 2009
Мировая премьера: 19 марта 2009
Российская премьера: 19 марта 2009, «Централ Партнершип»
Дата выхода DVD: 20 октября 2009, «Юниверсал Пикчерс Рус»
Производство: США
Жанр: фантастика, боевик, комедия, приключения, семейный
Продолжительность: 01:34:21
Перевод: профессиональный (полное дублирование)
Автор(ы) перевода: Глюкоза, Виктор Логинов, Александр Ревва, Дмитрий Дюжев, Сергей Гармаш
Режиссер: Роб Леттерман, Конрад Вернон / Rob Letterman, Conrad Vernon
В ролях: Риз Уизерспун
Сет Роген
Хью Лори
Уилл Арнетт
Кифер Сазерленд
Рэйн Уилсон
Стефен Колбер
Пол Радд
Джули Уайт
Джефри Тэмбор
Описание: В Сюзан Мёрфи, девушку из Калифорнии, прямо в день ее свадьбы попадает метеорит, полный всякой дряни из космоса, в результате чего она вдруг начинает расти и вырастает до пятнадцати метров. Встревоженные появлением нового монстра, военные сразу берутся за дело: Сюзан отлавливают и увозят на секретную правительственную базу.
Там её переименовывают в Гигантику и запирают вместе с другими монстрами: гениальным, но насекомоголовым доктором наук Тараканом; брутальным рыбочеловеком по кличке Недостающее Звено; желеподобным и неубиваемым Б. О. Бом и стометровым Насекомозавром. Правда, их тюремное заключение длится недолго: на Землю нападает инопланетный робот, и отчаявшийся Президент, поддавшись уговорам генерала Воякера, отправляет разношерстную команду монстров на спасение планеты от неминуемой гибели.
Доп. информация: сценарий Роб Леттерман, Майя Форбс, Уоллес Володарски,
продюсер Лиза Стюарт, Джилл Хоппер, Латифа Оау
композитор Генри Джекман
художник Дэвид Джеймс, Майкл Исаак, Скотт Уиллс
монтаж Джойс Аррастья, Эрик Дапкевич
бюджет $175 000 000
сборы в США $198 351 526
сборы в мире + $183 158 344 = $381 509 870
сборы в России $13 523 812

Сэмпл, IMDB, КиноПоиск
Источник/Качество: BDRip
Формат: AVI
Видео кодек: XviD
Аудио кодек: AC3
Видео: 720x304 (2.37:1), 23.976 fps, XviD build 63 ~1764 kbps avg, 0.34 bit/pixel
Аудио: 48 kHz, AC3 Dolby Digital, 3/2 (L,C,R,l,r) + LFE ch, ~448.00 kbps avg
Субтитры: нет
Сатурн, 2010 год
Победитель (1):
Лучший анимационный фильм
General
Format : AVI
Format/Info : Audio Video Interleave
File size : 1.46 GiB
Duration : 1h 34mn
Overall bit rate : 2 222 Kbps
Writing application : VirtualDubMod 1.5.10.2 (build 2540/release)
Writing library : VirtualDubMod build 2540/release
Video #0
ID : 0
Format : MPEG-4 Visual
Format profile : [email protected]
Format settings, BVOP : Yes
Format settings, QPel : No
Format settings, GMC : No warppoints
Format settings, Matrix : Custom
Codec ID : XVID
Codec ID/Hint : XviD
Duration : 1h 34mn
Bit rate : 1 765 Kbps
Width : 720 pixels
Height : 304 pixels
Display aspect ratio : 2.35:1
Frame rate : 23.976 fps
Resolution : 24 bits
Colorimetry : 4:2:0
Scan type : Progressive
Bits/(Pixel*Frame) : 0.336
Stream size : 1.16 GiB (79%)
Writing library : XviD 63
Audio #1
ID : 1
Format : AC-3
Format/Info : Audio Coding 3
Codec ID : 2000
Duration : 1h 34mn
Bit rate mode : Constant
Bit rate : 448 Kbps
Channel(s) : 6 channels
Channel positions : Front: L C R, Surround: L R, LFE
Sampling rate : 48.0 KHz
Stream size : 302 MiB (20%)
Alignment : Split accross interleaves
Interleave, duration : 42 ms (1.00 video frame)
Interleave, preload duration : 500 ms
Download / Скачать

Хотите скачать бесплатно? Зарегистрируйтесь на сайте (ссылка на регистрацию). Pirat.ca - самый быстрый торрент трекер в рунете!

Как скачивать  ·   Что такое торрент  ·   Рейтинг и ограничения

Пост 04-Дек-2011 09:13 (спустя 12 часов)

Топик был перенесен из форума Мультипликация в форум Зарубежные полнометражные мультфильмы

CaptRom
 

CHARLI2236

1098

Пост 30-Окт-2012 13:18 (спустя 10 месяцев 26 дней)

[Q] 

спс

_________________
[Профиль]  [ЛС] 

Volodko

Корсар

Пост 01-Янв-2013 22:34 (спустя 2 месяца 2 дня)

[Q] 

[Профиль]  [ЛС] 

Alexe10

Гроза морей

36

Пост 23-Окт-2014 06:58 (спустя 1 год 9 месяцев)

[Q] 

Спасибо!!!
[Профиль]  [ЛС] 

baltimor30

Морской Волк

Пост 27-Июл-2015 19:37 (спустя 9 месяцев 4 дня)

[Q] 

Еще раз качну, но уже для ребенка, хороший мульт
[Профиль]  [ЛС] 
Показать сообщения:    
Ответить на тему

Текущее время: Сегодня 22:30

Часовой пояс: GMT + 4



Вы не можете начинать темы
Вы не можете отвечать на сообщения
Вы не можете редактировать свои сообщения
Вы не можете удалять свои сообщения
Вы не можете голосовать в опросах
Вы не можете прикреплять файлы к сообщениям
Вы не можете скачивать файлы

▼ Вниз