ML
     
  Уважаемый Гость!
Вы можете поддержать проект и зарегистрироваться у наших партнеров - онлайн-стратегия MyLands. При регистрации в игре Вы получите код, который сможете активировать после регистрации на pirat.ca и получить 1000 дублонов.

Ваш код:
0fcd44bd35319f69313aa6e53b31c51cbff1c942
 
     

Утиные истории: Заветная лампа / DuckTales: The Movie - Treasure of the Lost Lamp (Боб Хэчкок / Bob Hathcock) [1990 г., мультфильм, фэнтези, комедия, приключения, семейный, DVDRip] Dub

Ответить на тему
 
Автор
Сообщение

Пост 28-Мар-2012 15:23

[Q] 

erchine

Утиные истории: Заветная лампа / DuckTales: The Movie - Treasure of the Lost Lamp
Год выпуска: 1990
Мировая премьера: 3 августа 1990
Дата выхода DVD: 5 октября 2009
Производство: США, Франция, Disney
Жанр: мультфильм, фэнтези, комедия, приключения, семейный
Продолжительность: 1:10:46
Перевод: Профессиональный (полное дублирование)
Оригинальный аудиопоток: английский
Субтитры: отсутствуют
Режиссер: Боб Хэчкок / Bob Hathcock
Описание
Запрыгивайте на верблюда, хватайте карту и приготовьтесь к захватывающему веселому приключению вместе с любимыми пернатыми друзьями Скруджем МакДаком, Хьюи, Дьюи, Луи и Веббигейл Вандеркваком!
Присоединяйтесь к команде Утиных Историй, пересекающих египетскую пустыню в бесстрашном поиске легендарных сокровищ Колли Бабы. Захватывающие моменты будут преследовать главных героев на каждом шагу, по мере приближения к сказочным сокровищам, а злой маг Мерлок будет идти по пятам. Но смелые утки и не могли предположить, что вместе с сокровищами найдут волшебную лампу с настоящим джином, исполняющим желания!
Наполненный весельем, приключениями и обожаемыми героями, фильм «Утиные истории: Заветная лампа» — истинная классика студии Disney, которой насладится вся Ваша семья!

Источник/Качество: DVDRip
Формат: AVI
Видео кодек: XviD
Аудио кодек: AC3
Видео: Xvid 704x416 25.00fps 2379 Kbps
Аудио 1: Dolby AC3 48000Hz stereo 192kbps
Аудио 2: Dolby AC3 48000Hz stereo 192kbps
General
Complete name : D:\Utinye_istorii\Utinye_istorii.avi
Format : AVI
Format/Info : Audio Video Interleave
File size : 1.37 GiB
Duration : 1h 10mn
Overall bit rate : 2 778 Kbps
Writing application : VirtualDubMod 1.5.10.3 | (build 2550/release)
Writing library : VirtualDubMod build 2550/release
Video
ID : 0
Format : MPEG-4 Visual
Format profile : Advanced [email protected]
Format settings, BVOP : Yes
Format settings, QPel : No
Format settings, GMC : No warppoints
Format settings, Matrix : Custom
Codec ID : XVID
Codec ID/Hint : XviD
Duration : 1h 10mn
Bit rate : 2 379 Kbps
Width : 704 pixels
Height : 416 pixels
Display aspect ratio : 1.692
Frame rate : 25.000 fps
Resolution : 8 bits
Colorimetry : 4:2:0
Scan type : Progressive
Bits/(Pixel*Frame) : 0.325
Stream size : 1.18 GiB (86%)
Writing library : XviD 64
Audio #1
ID : 1
Format : AC-3
Format/Info : Audio Coding 3
Format profile : Dolby Digital
Format_Settings_ModeExtension : CM (complete main)
Codec ID : 2000
Duration : 1h 10mn
Bit rate mode : Constant
Bit rate : 192 Kbps
Channel(s) : 2 channels
Channel positions : Front: L R
Sampling rate : 48.0 KHz
Stream size : 97.2 MiB (7%)
Alignment : Split accross interleaves
Interleave, duration : 40 ms (1.00 video frame)
Interleave, preload duration : 500 ms
Audio #2
ID : 2
Format : AC-3
Format/Info : Audio Coding 3
Format profile : Dolby Digital
Format_Settings_ModeExtension : CM (complete main)
Codec ID : 2000
Duration : 1h 10mn
Bit rate mode : Constant
Bit rate : 192 Kbps
Channel(s) : 2 channels
Channel positions : Front: L R
Sampling rate : 48.0 KHz
Stream size : 97.2 MiB (7%)
Alignment : Split accross interleaves
Interleave, duration : 40 ms (1.00 video frame)
Interleave, preload duration : 500 ms
Download / Скачать

Хотите скачать бесплатно? Зарегистрируйтесь на сайте (ссылка на регистрацию). Pirat.ca - самый быстрый торрент трекер в рунете!

Как скачивать  ·   Что такое торрент  ·   Рейтинг и ограничения



Последний раз редактировалось: erchine (2012-03-28 15:58), всего редактировалось 1 раз

ThisMan

Штурман

24

Пост 28-Мар-2012 15:52 (спустя 29 минут)

[Q] 

erchine, отличная раздача ;)
[Профиль]  [ЛС] 

Пост 28-Мар-2012 16:01 (спустя 8 минут)

Топик был перенесен из форума Мультипликация в форум Зарубежные полнометражные мультфильмы

ThisMan
 

lexx

Корсар

129

Пост 28-Мар-2012 21:29 (спустя 5 часов)

[Q] 

пасибо
[Профиль]  [ЛС] 

balex

Морской Волк

Пост 28-Апр-2012 18:21 (спустя 30 дней)

[Q] 

Спасибо!!!
[Профиль]  [ЛС] 

дрюпа

Корсар

158

Пост 04-Май-2012 22:43 (спустя 6 дней)

[Q] 

[Профиль]  [ЛС] 

baltimor30

Морской Волк

Пост 25-Май-2012 19:32 (спустя 20 дней)

[Q] 

[Профиль]  [ЛС] 

Дядя Витя

53908

Пост 02-Июн-2012 19:44 (спустя 8 дней)

[Q] 

Семисотая бочка от меня ))) за утиные истории !!!

_________________
?
[Профиль]  [ЛС] 

Vovafili

Лоцман

Пост 21-Июн-2012 14:57 (спустя 18 дней)

[Q] 

[Профиль]  [ЛС] 

Vlad__treker

Морской Волк

184

Пост 17-Июл-2012 14:37 (спустя 25 дней)

[Q] 


_________________
...:::Pirat.ca:::...
..:::The Best:::...
[Профиль]  [ЛС] 

ysd

Корсар

Пост 08-Сен-2012 09:29 (спустя 1 месяц 21 день)

[Q] 

[Профиль]  [ЛС] 

Драйвер 1000

Штурман

Пост 17-Фев-2014 17:55 (спустя 1 год 5 месяцев)

[Q] 

Спасибо aa
[Профиль]  [ЛС] 

SonicSlash

Флибустьер

Пост 22-Фев-2014 16:44 (спустя 4 дня)

[Q] 

Одобряемс))) !COOL! Спасибо!!!

_________________
[Профиль]  [ЛС] 

Han.M

Флибустьер

Пост 24-Фев-2014 21:56 (спустя 2 дня 5 часов)

[Q] 

Мульт моего детства! Автору спасибо
[Профиль]  [ЛС] 

Alex Yz

Гроза морей

Пост 25-Фев-2015 21:10 (спустя 1 год)

[Q] 

Скачаю для дочи.
Вы лучшие!
[Профиль]  [ЛС] 
Показать сообщения:    
Ответить на тему

Текущее время: Сегодня 02:09

Часовой пояс: GMT + 4



Вы не можете начинать темы
Вы не можете отвечать на сообщения
Вы не можете редактировать свои сообщения
Вы не можете удалять свои сообщения
Вы не можете голосовать в опросах
Вы не можете прикреплять файлы к сообщениям
Вы не можете скачивать файлы

▼ Вниз