ML
     
  Уважаемый Гость!
Вы можете поддержать проект и зарегистрироваться у наших партнеров - онлайн-стратегия MyLands. При регистрации в игре Вы получите код, который сможете активировать после регистрации на pirat.ca и получить 1000 дублонов.

Ваш код:
0fcd44bd35319f69313aa6e53b31c51cbff1c942
 
     

Тяжелый металл / Heavy Metal (Джеральд Поттертон / Gerald Potterton) [1981 г., фэнтези, боевик, приключения, музыка BDRip] (MVO)

Ответить на тему
 
Автор
Сообщение

Пост 03-Дек-2011 22:34

[Q] 

Sirota

Легенда

Тяжелый металл / Heavy Metal Год выпуска: 1981
Мировая премьера: 29 июля 1981
Производство: Канада
Жанр: фэнтези, боевик, приключения, музыка,
Продолжительность: 01:30:20
Перевод: профессиональный (многоголосый, закадровый)
Режиссер: Джеральд Поттертон / Gerald Potterton
В ролях: Роджер Бампасс
Джон Кэнди
Джеки Барроуз
Джо Флаэрти
Дон Фрэнкс
Martin Lavut
Мэрлин Лайтстоун
Юджин Леви
Элис Плэйтен
Харольд Рэмис
Описание: Это великолепный мультфильм для взрослых, снятый с огромным размахом по комиксам знаменитых художников Кевина Истмэна, Саймона Бизли и Эрика Тэлбота, рисующих для журнала «Heavy Metal». Удивительное сочетание ужасов, черного юмора и великолепного саундтрека, включающего Nazareth, Black Sabbath, sammy Hagar, Blue Oyster, Cult и др. Этот мультфильм заставит вас с затаенным дыханием следить за напряженной битвой между вселенскими силами добра и зла.
Доп. информация: сценарий Дэниэл Голдберг, Лен Блум, Дэн О’Бэннон,
продюсер Айвен Райтман, Вик Эткинсон, Уистен Стивенс мл.,
композитор Элмер Бернстайн
художник Майкл С. Гросс, Пэт Гэвин
монтаж Ian Llande, Мик Мэннинг, Джералд Трип
бюджет $9 300 000
Не рекомендуется к просмотру лицам моложе 16 лет.
IMDB, КиноПоиск
Источник/Качество: BDRip источник (BDRemux 1080p)
Формат: AVI
Видео кодек: XviD
Аудио кодек: AC3
Видео: 704x384 (1.83:1), 23.976 fps, XviD build 50 ~1921 kbps avg, 0.30 bit/pixel
Аудио: 48 kHz, AC3 Dolby Digital, 3/2 (L,C,R,l,r) + LFE ch, ~384.00 kbps avg
Субтитры: нет
Сатурн, 1982 год
Номинации (1):
Лучший научно-фантастический фильм
General
Format : AVI
Format/Info : Audio Video Interleave
File size : 1.46 GiB
Duration : 1h 30mn
Overall bit rate : 2 315 Kbps
Movie name : Тяжелый металл
Director : derdevil13
Writing application : VirtualDubMod 1.5.10.2 (build 2542/release)
Video #0
ID : 0
Format : MPEG-4 Visual
Format profile : [email protected]
Format settings, BVOP : Yes
Format settings, QPel : No
Format settings, GMC : No warppoints
Format settings, Matrix : Custom
Codec ID : XVID
Codec ID/Hint : XviD
Duration : 1h 30mn
Bit rate : 1 922 Kbps
Width : 704 pixels
Height : 384 pixels
Display aspect ratio : 16:9
Frame rate : 23.976 fps
Resolution : 24 bits
Colorimetry : 4:2:0
Scan type : Progressive
Bits/(Pixel*Frame) : 0.297
Stream size : 1.21 GiB (83%)
Writing library : XviD 1.2.1 (UTC 2008-12-04)
Audio #1
ID : 1
Format : AC-3
Format/Info : Audio Coding 3
Codec ID : 2000
Duration : 1h 30mn
Bit rate mode : Constant
Bit rate : 384 Kbps
Channel(s) : 6 channels
Channel positions : Front: L C R, Surround: L R, LFE
Sampling rate : 48.0 KHz
Stream size : 248 MiB (17%)
Alignment : Split accross interleaves
Interleave, duration : 42 ms (1.00 video frame)
Interleave, preload duration : 500 ms









Download / Скачать

Хотите скачать бесплатно? Зарегистрируйтесь на сайте (ссылка на регистрацию). Pirat.ca - самый быстрый торрент трекер в рунете!

Как скачивать  ·   Что такое торрент  ·   Рейтинг и ограничения

Пост 04-Дек-2011 09:13 (спустя 10 часов)

Топик был перенесен из форума Мультипликация в форум Зарубежные полнометражные мультфильмы

CaptRom
 

CHARLI2236

1096

Пост 30-Окт-2012 13:39 (спустя 10 месяцев 26 дней)

[Q] 

спс

_________________
[Профиль]  [ЛС] 

Spacetigro

Лоцман

Пост 11-Ноя-2012 18:44 (спустя 12 дней)

[Q] 

Шикарный мульт. Спасибо большое за релиз.
[Профиль]  [ЛС] 

kipelog

Корсар

193

Пост 28-Ноя-2012 20:48 (спустя 17 дней)

[Q] 

[Профиль]  [ЛС] 

kipelog

Корсар

193

Пост 28-Ноя-2012 21:26 (спустя 38 минут)

[Q] 

[Профиль]  [ЛС] 

Saunger

Лоцман

Пост 30-Янв-2013 17:38 (спустя 2 месяца 1 день)

[Q] 

спс
[Профиль]  [ЛС] 

Odessit

Юнга

Пост 22-Апр-2013 21:59 (спустя 2 месяца 23 дня)

[Q] 

Роздайте. Скорость ноль )
[Профиль]  [ЛС] 

darkroot

Шкипер

Пост 17-Апр-2014 22:35 (спустя 11 месяцев 25 дней)

[Q] 

спасибо) Лови бочку

_________________
[Профиль]  [ЛС] 
Показать сообщения:    
Ответить на тему

Текущее время: Сегодня 02:12

Часовой пояс: GMT + 4



Вы не можете начинать темы
Вы не можете отвечать на сообщения
Вы не можете редактировать свои сообщения
Вы не можете удалять свои сообщения
Вы не можете голосовать в опросах
Вы не можете прикреплять файлы к сообщениям
Вы не можете скачивать файлы

▼ Вниз