ML
     
  Уважаемый Гость!
Вы можете поддержать проект и зарегистрироваться у наших партнеров - онлайн-стратегия MyLands. При регистрации в игре Вы получите код, который сможете активировать после регистрации на pirat.ca и получить 1000 дублонов.

Ваш код:
ea554e7ed3eacceeae87a8b30a9de3f086c18a84
 
     

Легенды ночных стражей / Legend of the Guardians: The Owls of Ga’Hoole (Зак Снайдер / Zack Snyder) [2010 г., фэнтези, приключения, семейный, HDRip] (Dub)

Ответить на тему
 
Автор
Сообщение

Пост 03-Дек-2011 23:06

[Q] 

Sirota

Легенда

Легенды ночных стражей / Legend of the Guardians: The Owls of Ga’Hoole Год выпуска: 2010
Мировая премьера: 23 сентября 2010
Российская премьера: 30 сентября 2010, «Каро-Премьер»
Дата выхода DVD: 27 января 2011, «CP-Digital»
Производство: США, Австралия
Жанр: фэнтези, приключения, семейный
Продолжительность: 01:36:49
Перевод: профессиональный (полное дублирование) лицензия
Автор(ы) перевода: Прохор Чеховской, Диомид Виноградов, Александр Груздев, Любовь Германова, Александр Воеводин
Режиссер: Зак Снайдер / Zack Snyder
В ролях: Джим Стёрджесс
Райан Квантен
Джоэл Эдгертон
Хелен Миррен
Джеффри Раш
Эдриэнн ДеФариа
Эмили Барклай
Сэм Нил
Энтони ЛаПалья
Дэвид Уэнэм
Описание: Миром, в котором уже не осталось людей, правят совы… добрые… злые… как и всегда! В волшебном лесу — королевстве сов Тито — на Великом Дереве Га`Хуул, где разумные совы живут в гармонии, наступают мрачные времена. Королевство подвергается страшной опасности со стороны соседних жестоких правителей, и эта опасность грозит уничтожить привычное мироздание.
Доп. информация: сценарий Джон Орлофф, Эмиль Штерн, Кэтрин Ласки
продюсер Зарех Налбандян, Уэсли Коллер, Дональд Де Лайн,
композитор Дэвид Хиршфелдер
художник Саймон Уайтели, Грант Фрекелтон
монтаж Дэвид Берроуз
бюджет $80 000 000
сборы в США $55 675 313
сборы в мире + $84 398 077 = $140 073 390
сборы в России $8 518 162

Сэмпл, IMDB, КиноПоиск
Источник/Качество: HDRip источник BDRip 1080p
Формат: AVI
Видео кодек: XviD
Аудио кодек: AC3
Видео: 720x304 (2.37:1), 23.976 fps, XviD MPEG-4 ~1762 kbps avg, 0.34 bit/pixel
Аудио: 48 kHz, AC3 Dolby Digital, 3/2 (L,C,R,l,r) + LFE ch, ~384.00 kbps avg
Субтитры: нет
Сатурн, 2011 год
Номинации (1):
Лучший анимационный фильм
General
Format : AVI
Format/Info : Audio Video Interleave
File size : 1.46 GiB
Duration : 1h 36mn
Overall bit rate : 2 155 Kbps
Writing application : VirtualDubModRus 1.5.10.2 (build 2542/release)
Writing library : VirtualDubMod build 2542/release
Video #0
ID : 0
Format : MPEG-4 Visual
Format profile : [email protected]
Format settings, BVOP : Yes
Format settings, QPel : No
Format settings, GMC : No warppoints
Format settings, Matrix : Custom
Muxing mode : Packed bitstream
Codec ID : XVID
Codec ID/Hint : XviD
Duration : 1h 36mn
Bit rate : 1 762 Kbps
Width : 720 pixels
Height : 304 pixels
Display aspect ratio : 2.35:1
Frame rate : 23.976 fps
Resolution : 24 bits
Colorimetry : 4:2:0
Scan type : Progressive
Bits/(Pixel*Frame) : 0.336
Stream size : 1.19 GiB (82%)
Writing library : XviD 1.2.1 (UTC 2008-12-04)
Audio #1
ID : 1
Format : AC-3
Format/Info : Audio Coding 3
Codec ID : 2000
Duration : 1h 36mn
Bit rate mode : Constant
Bit rate : 384 Kbps
Channel(s) : 6 channels
Channel positions : Front: L C R, Surround: L R, LFE
Sampling rate : 48.0 KHz
Stream size : 266 MiB (18%)
Alignment : Split accross interleaves
Interleave, duration : 42 ms (1.00 video frame)
Interleave, preload duration : 500 ms
Download / Скачать

Хотите скачать бесплатно? Зарегистрируйтесь на сайте (ссылка на регистрацию). Pirat.ca - самый быстрый торрент трекер в рунете!

Как скачивать  ·   Что такое торрент  ·   Рейтинг и ограничения

Пост 04-Дек-2011 09:12 (спустя 10 часов)

Топик был перенесен из форума Мультипликация в форум Зарубежные полнометражные мультфильмы

CaptRom
 

LETHIK2010

Морской Волк

Пост 23-Янв-2012 11:42 (спустя 1 месяц 19 дней)

[Q] 

Спасибо за раздачу.
[Профиль]  [ЛС] 

CHARLI2236

1090

Пост 30-Окт-2012 13:14 (спустя 9 месяцев 7 дней)

[Q] 

спасибо

_________________
[Профиль]  [ЛС] 

Zha-pol

Легенда

Пост 12-Янв-2013 11:01 (спустя 2 месяца 12 дней)

[Q] 


_________________
[Профиль]  [ЛС] 

vip-kai

Корсар

Пост 20-Янв-2013 09:22 (спустя 7 дней)

[Q] 

совы РУЛЯТ? посмотрим )))
[Профиль]  [ЛС] 

zukerman

Лоцман

Пост 26-Май-2013 20:16 (спустя 4 месяца 6 дней)

[Q] 

очень классно
[Профиль]  [ЛС] 

Alexe10

Гроза морей

36

Пост 23-Окт-2014 07:04 (спустя 1 год 4 месяца)

[Q] 

Автору респект!!!
[Профиль]  [ЛС] 
Показать сообщения:    
Ответить на тему

Текущее время: Сегодня 12:11

Часовой пояс: GMT + 4



Вы не можете начинать темы
Вы не можете отвечать на сообщения
Вы не можете редактировать свои сообщения
Вы не можете удалять свои сообщения
Вы не можете голосовать в опросах
Вы не можете прикреплять файлы к сообщениям
Вы не можете скачивать файлы

▼ Вниз