ML
     
  Уважаемый Гость!
Вы можете поддержать проект и зарегистрироваться у наших партнеров - онлайн-стратегия MyLands. При регистрации в игре Вы получите код, который сможете активировать после регистрации на pirat.ca и получить 1000 дублонов.

Ваш код:
a6d1ef7ff63e237add5a4c8b21d8aa937c5e9b4b
 
     

Маленькая колдунья / Die Kleine Hexe / Malá čarodějnice (Зденек Сметана / Zdeněk Smetana) [1986г., Чехословакия, Германия (ФРГ) , мультфильм, семейный, DVDRip] VО

Ответить на тему
 
Автор
Сообщение

Пост 31-Мар-2012 21:12

[Q] 

Андря

Маленькая колдунья / Die Kleine Hexe / Malá čarodějnice

Год выпуска: 1986
Страна: Чехословакия, Германия (ФРГ)
Жанр: мультфильм, семейный
Продолжительность: 01:29:30
Перевод: Любительский (одноголосый закадровый)
Субтитры: отсутствуют
Мировая премьера: 19 февраля 1998
Режиссёр: Зденек Сметана / Zdeněk Smetana
Маленькая колдунья, которой всего лишь сотня с небольшим лет, хочет попасть на шабаш, который ежегодно происходит на Лысой горе. Живущий с ней вместе мудрый ворон пытается отговорить ее от этой затеи, но маленькая колдунья ничего и слышать не желает. Она спрятавшись наблюдает за шабашем, но ее обнаруживает тетка Бимбула. Главная ведьма соглашается допустить ее на следующий шабаш через год, если наша героиня станет хорошей колдуньей.
Девчонка тут же бросается учиться и во время учебы делает добрые дела: помогает старушкам насобирать хворост, помогает коню и наказывает злого извозчика, помогает бедной маленькой цветочнице, бумажные цветы которой ничем не пахнут. За ней следит вредная тетка Бимбула, и когда маленькая колдунья нарушает строжайший закон - не колдовать по пятницам и помогает маленьким детям, Бимбула колдует ей зиму в наказание. Но и это не помеха маленькой колдунье, она делает снеговика с детьми, устраивает веселый карнавал. И вот настает следующий шабаш, где маленькая колдунья должна сдать экзамен по чародейству.
Качество: DVDRip
Формат: AVI
Видео кодек: XVID
Аудио кодек: МР3
Видео: XviD, 2637 Кбит/сек, 640х 480, 4:3, 25,000 кадров/сек, 8 бит, 0.343 Бит/Пиксел
Аудио: MPEG Audio Layer 3, 128 Кбит/сек, 2 канала, 48,0 КГц
Общее
Полное имя : Маленькая колдунья.avi
Формат : AVI
Формат/Информация : Audio Video Interleave
Размер файла : 1,73 Гбайт
Продолжительность : 1 ч. 29 м.
Общий поток : 2775 Кбит/сек
Видео
Идентификатор : 0
Формат : MPEG-4 Visual
Профиль формата : Advanced [email protected]
Параметр BVOP формата : 2
Параметр QPel формата : Нет
Параметр GMC формата : Без точки перехода
Параметр матрицы формата : Default (MPEG)
Идентификатор кодека : XVID
Идентификатор кодека/Подсказка : XviD
Продолжительность : 1 ч. 29 м.
Битрейт : 2637 Кбит/сек
Ширина : 640 пикселей
Высота : 480 пикселей
Соотношение сторон : 4:3
Частота кадров : 25,000 кадров/сек
Цветовое пространство : YUV
Субдискретизация насыщенности : 4:2:0
Битовая глубина : 8 бит
Тип развёртки : Прогрессивная
Метод сжатия : С потерями
Бит/(Пиксели*Кадры) : 0.343
Размер потока : 1,65 Гбайт (95%)
Библиотека кодирования : DivX 1393
Аудио
Идентификатор : 1
Формат : MPEG Audio
Версия формата : Version 1
Профиль формата : Layer 3
Режим : Joint stereo
Расширение режима : MS Stereo
Идентификатор кодека : 55
Идентификатор кодека/Подсказка : MP3
Продолжительность : 1 ч. 29 м.
Вид битрейта : Постоянный
Битрейт : 128 Кбит/сек
Каналы : 2 канала
Частота : 48,0 КГц
Метод сжатия : С потерями
Размер потока : 81,9 Мбайт (5%)
Выравнивание : Соединение по промежуткам
Продолжительность промежутка : 40 мс. (1,00 видеокадр)
Время предзагрузки промежутка : 504 мс.






Download / Скачать

Хотите скачать бесплатно? Зарегистрируйтесь на сайте (ссылка на регистрацию). Pirat.ca - самый быстрый торрент трекер в рунете!

Как скачивать  ·   Что такое торрент  ·   Рейтинг и ограничения

Пост 31-Мар-2012 21:48 (спустя 35 минут)

Топик был перенесен из форума Мультипликация в форум Зарубежные полнометражные мультфильмы

erchine
 

shalonina

Гроза морей

Пост 26-Авг-2014 17:38 (спустя 2 года 4 месяца)

[Q] 

помогу с раздачей...........................................................

_________________
[Профиль]  [ЛС] 
Показать сообщения:    
Ответить на тему

Текущее время: Сегодня 13:33

Часовой пояс: GMT + 4



Вы не можете начинать темы
Вы не можете отвечать на сообщения
Вы не можете редактировать свои сообщения
Вы не можете удалять свои сообщения
Вы не можете голосовать в опросах
Вы не можете прикреплять файлы к сообщениям
Вы не можете скачивать файлы

▼ Вниз