ML
     
  Уважаемый Гость!
Вы можете поддержать проект и зарегистрироваться у наших партнеров - онлайн-стратегия MyLands. При регистрации в игре Вы получите код, который сможете активировать после регистрации на pirat.ca и получить 1000 дублонов.

Ваш код:
0ea1bf889af42fca5f67d0a391efb3400850ad7c
 
     

Финес и Ферб: Покорение второго измерения / Phineas and Ferb the Movie: Across the 2nd Dimension (Джон Колтон Бэрри, Джим Бернштейн / Jon Colton Barry, Jim Bernstein) [2011 г., приключения, комедия, фантастика, семейный, DVDRip] Dub (лицензия)

Ответить на тему
 
Автор
Сообщение

Пост 01-Апр-2012 17:30

[Q] 

Sirota

Легенда

Финес и Ферб: Покорение второго измерения / Phineas and Ferb the Movie: Across the 2nd Dimension Год выпуска: 2011
Мировая премьера: 5 августа 2011
Дата выхода DVD: 6 марта 2012, «Уолт Дисней Компани СНГ»
Производство: США / Walt Disney Television Animation
Жанр: приключения, комедия, фантастика, семейный
Продолжительность: 01:13:39
Перевод: Профессиональный (полное дублирование) [лицензия]
Роли дублировали: Мария Павлова
Дмитрий Череватенко
Валерия Забегаева
Антон Батырев
Максим Глебов
Субтитры: отсутствуют
Режиссер: Джон Колтон Бэрри, Джим Бернштейн / Jon Colton Barry, Jim Bernstein
В ролях
Винсент Мартелла
Эшли Тисдейл
Томас Броди Сэнгстер
Кэролайн Ри
Ричард О’Брайэн
Дэн Повенмайр
Джефф «Свомпи» Марш
Элисон Стоунер
Молик Панчоли
Бобби Гейлор
Описание
Худший из всех страхов утконоса Пэрри сбывается, когда Финес и Фёрб узнают, что он на самом деле Секретный агент Пи, но как оказалось это ничто по сравнению с поездкой во второе измерение, где доктор Дуфеншмирц оказался успешен в своих злодеяниях.
Сэмпл , IMDB , КиноПоиск
Источник/Качество: DVDRip
Формат: AVI
Видео кодек: XviD
Аудио кодек: AC3
Видео: 704x400 (1.76:1), 25 fps, XviD build 65 ~2249 kbps avg, 0.32 bit/pixel
Аудио: Rus 48 kHz, AC3 Dolby Digital, 2/0 (L,R) ch, ~192.00 kbps avg
Аудио #2: Eng 48 kHz, AC3 Dolby Digital, 3/2 (L,C,R,l,r) + LFE ch, ~384.00 kbps avg
General
Format : AVI
Format/Info : Audio Video Interleave
File size : 1.46 GiB
Duration : 1h 13mn
Overall bit rate : 2 841 Kbps
Writing application : VirtualDubMod 1.5.10.3 (build 2550/release)
Writing library : VirtualDubMod build 2550/release
Video #0
ID : 0
Format : MPEG-4 Visual
Format profile : [email protected]
Format settings, BVOP : Yes
Format settings, QPel : No
Format settings, GMC : No warppoints
Format settings, Matrix : Custom
Codec ID : XVID
Codec ID/Hint : XviD
Duration : 1h 13mn
Bit rate : 2 251 Kbps
Width : 704 pixels
Height : 400 pixels
Display aspect ratio : 16:9
Frame rate : 25.000 fps
Resolution : 24 bits
Colorimetry : 4:2:0
Scan type : Progressive
Bits/(Pixel*Frame) : 0.320
Stream size : 1.16 GiB (79%)
Writing library : XviD 65
Audio #1
ID : 1
Format : AC-3
Format/Info : Audio Coding 3
Format profile : Dolby Digital
Codec ID : 2000
Duration : 1h 13mn
Bit rate mode : Constant
Bit rate : 192 Kbps
Channel(s) : 2 channels
Channel positions : L R
Sampling rate : 48.0 KHz
Stream size : 101 MiB (7%)
Alignment : Split accross interleaves
Interleave, duration : 40 ms (1.00 video frame)
Interleave, preload duration : 500 ms
Audio #2
ID : 2
Format : AC-3
Format/Info : Audio Coding 3
Codec ID : 2000
Duration : 1h 13mn
Bit rate mode : Constant
Bit rate : 384 Kbps
Channel(s) : 6 channels
Channel positions : Front: L C R, Surround: L R, LFE
Sampling rate : 48.0 KHz
Stream size : 202 MiB (14%)
Alignment : Split accross interleaves
Interleave, duration : 40 ms (1.00 video frame)
Interleave, preload duration : 500 ms
продюсер Брэд Льюис
композитор Дэнни Джейкоб
художник Алан Боднер, Джилл Дэниелс
монтаж Ted Supa
Download / Скачать

Хотите скачать бесплатно? Зарегистрируйтесь на сайте (ссылка на регистрацию). Pirat.ca - самый быстрый торрент трекер в рунете!

Как скачивать  ·   Что такое торрент  ·   Рейтинг и ограничения

Пост 01-Апр-2012 17:57 (спустя 26 минут)

Топик был перенесен из форума Мультипликация в форум Новинки (HD|DVD|BD|TV|SAT|PDTV| - Rips)

erchine
 

lordval77

Штурман

Пост 01-Апр-2012 23:21 (спустя 5 часов)

[Q] 

Завидую тем кто смотрит подобную х..ню, им качать ниче не надо
[Профиль]  [ЛС] 

dragan123

Морской Волк

Пост 02-Апр-2012 00:32 (спустя 1 час 10 минут)

[Q] 

Завидую тем кто смотрит подобную х..ню, им качать ниче не надо
а че нам завидывать!это тебе надо завидывать что ты не далекого ума,жизль легка и не принужденна!
[Профиль]  [ЛС] 

Совунья

Морской Волк

Пост 03-Апр-2012 07:44 (спустя 1 день 7 часов)

[Q] 

Спасибо, давно ждала! Веселый мульт, позитивный. ay

_________________
Я верю в честность Президента, и в неподкупность постовых! В заботу банка о клиентах. В вампиров верю, в домовых.
[Профиль]  [ЛС] 

rus733

Штурман

Пост 03-Апр-2012 10:33 (спустя 2 часа 49 минут)

[Q] 

[Профиль]  [ЛС] 

Neocriss

Лоцман

Пост 03-Апр-2012 14:00 (спустя 3 часа)

[Q] 

Большое спасибо за английскую дорожку!
[Профиль]  [ЛС] 

morgan2000

Лоцман

Пост 03-Апр-2012 14:14 (спустя 14 минут)

[Q] 

амерские мульты зачастую такой бред одни рожи чего стоят....
[Профиль]  [ЛС] 

xprotm

Корсар

5

Пост 03-Апр-2012 20:17 (спустя 6 часов)

[Q] 

[Профиль]  [ЛС] 

dp

Корсар

Пост 03-Апр-2012 20:39 (спустя 21 минута)

[Q] 

дите будет рада

_________________
Мог стать отличным пианистом, а стал поскудным программистом
[Профиль]  [ЛС] 

far_nic

Штурман

Пост 04-Апр-2012 15:17 (спустя 18 часов)

[Q] 

Спасибо!Моей дочери нравится
[Профиль]  [ЛС] 

Jek@

Легенда

Пост 05-Апр-2012 14:51 (спустя 23 часа)

[Q] 

[Профиль]  [ЛС] 

a_barat

Гроза морей

3249

Пост 08-Апр-2012 11:41 (спустя 2 дня 20 часов)

[Q] 

Пазитифф!!! Бачёнаг!!!

_________________
This message represents an official view of the voices in my head af
[Профиль]  [ЛС] 

Пост 05-Май-2012 16:52 (спустя 27 дней)

Топик был перенесен из форума Новинки (HD|DVD|BD|TV|SAT|PDTV| - Rips) в форум Зарубежные полнометражные мультфильмы

erchine
 

Helen76

Лоцман

Пост 09-Окт-2012 13:49 (спустя 6 месяцев 1 день)

[Q] 

Весёлый детский мультик !
[Профиль]  [ЛС] 

CHARLI2236

1090

Пост 30-Окт-2012 13:42 (спустя 20 дней)

[Q] 

спс

_________________
[Профиль]  [ЛС] 

Алёха

Флибустьер

Пост 10-Ноя-2012 18:12 (спустя 11 дней)

[Q] 

Helen76, согласен! пацан мой в восторге!
[Профиль]  [ЛС] 

Lord_Anael

Лоцман

Пост 12-Ноя-2012 20:38 (спустя 2 дня 2 часа)

[Q] 

жесть конечно.. но забавно ..=))
[Профиль]  [ЛС] 

Андря

8409

Пост 13-Янв-2016 20:33 (спустя 3 года 2 месяца)

[Q] 

качают все

_________________
Като Тешекика
[Профиль]  [ЛС] 
Показать сообщения:    
Ответить на тему

Текущее время: Сегодня 00:39

Часовой пояс: GMT + 4



Вы не можете начинать темы
Вы не можете отвечать на сообщения
Вы не можете редактировать свои сообщения
Вы не можете удалять свои сообщения
Вы не можете голосовать в опросах
Вы не можете прикреплять файлы к сообщениям
Вы не можете скачивать файлы

▼ Вниз