ML
     
  Уважаемый Гость!
Вы можете поддержать проект и зарегистрироваться у наших партнеров - онлайн-стратегия MyLands. При регистрации в игре Вы получите код, который сможете активировать после регистрации на pirat.ca и получить 1000 дублонов.

Ваш код:
73640f24f8a0f579e128ea7346fd2db2b1009143
 
     

Властелин колец / The Lord of the Rings (Ральф Бакши / Ralph Bakshi) [1978 г., фэнтези, приключения, BDRip] MVO + Original + Sub RUS, ENG

Ответить на тему
 
Автор
Сообщение

Пост 05-Апр-2012 16:24

[Q] 

Linnan

Властелин колец / The Lord of the Rings
Год выпуска: 1978
Мировая премьера: 15 ноября 1978
Производство: США
Жанр: фэнтези, приключения
Продолжительность: 02:13:20
Перевод: Профессиональный (многоголосый, закадровый)
Оригинальный аудиопоток: английский
Субтитры: русские, английские
Режиссер: Ральф Бакши / Ralph Bakshi
В ролях
Кристофер Гард, Уильям Скуайр, Майкл Скоулс, Джон Хёрт, Саймон Чэндлер, Доминик Гард, Норман Бёрд, Майкл Грэм Кокс, Энтони Дэниелс, Дэвид Бак
Описание
Сказания Средиземья — это хроника Великой войны за Кольцо, войны, длившейся не одну тысячу лет. Тот, кто владел Кольцом, получал власть над всеми живыми тварями, но был обязан служить злу. Хоббит Фродо призван уничтожить Кольцо. Он отправился за ним в Мордор и на огненную Гору Судьбы вместе с союзниками — эльфами, гномами, людьми и хоббитами.
«Властелин колец» повествует о борьбе добра и зла, сохраняя сказочную атмосферу классики жанра «фэнтези» — трилогии Дж. Р. Р. Толкина.
Золотой глобус, 1979 год
Номинации (1):
Лучший саундтрек
Сатурн, 1979 год
Номинации (1):
Лучший фэнтези-фильм
Анимационная фантазия
Эта лента с бюджетом всего лишь $8 млн. была поставлена как раз к своему сорокалетию режиссёром Ралфом Бакши, одним из лидеров анимационного кино США, который прославился сатирическими картинами о современности — «Кот Фриц» (1972) и «Насыщенное движение» (1973). Бакши задолго до нынешней амбициозной и дорогостоящей попытки Питера Джексона обратился к культовой сказочной трилогии Дж. Р. Р. Толкиена, вместив в своё повествование где-то половину всей разветвлённой истории, рассказывающей о безграничной власти, которую может дать хотя бы одно из волшебных колец для обитателей Средиземья. Случайным обладателем такого кольца становится Фродо Бэггинс, надеющийся спасти свой маленький народец хоббитов и всё Средиземье от страшных сил Зла.
Причём наиболее изобретательными, оригинальными по технике исполнения (сочетание живого действия с анимацией снято по принципу ротоскопии) и художественному впечатлению кажутся сцены именно со злыми созданиями, а почему-то раздражают традиционные рисованные картинки с малосимпатичными человечками-хоббитами. Но из всех анимационных фильмов, снятых Ралфом Бакши, «Властелин колец» пользовался наибольшим успехом в прокате, что следует отнести, в первую очередь, на счёт невероятной популярности книг Толкиена.
1990 Сергей Кудрявцев
Источник/Качество: BDRip
Формат: MKV
Видео кодек: XviD
Аудио кодек: AC3
Видео: 720х400, 23,976 fps, 1894 kbps, 0.274 b/px
Аудио: Русский - 384 Kbps, 6 ch, 48 kHz
Аудио #2: Английский - 384 Kbps, 6 ch, 48 kHz
Общее
Уникальный идентификатор : 218846515632137346913774098818258211870 (0xA4A44E46D1071DFFA2C1C95FA438941E)
Полное имя : F:\Загрузки торрента\The Lord of the Rings 1978 [pirat.ca].mkv
Формат : Matroska
Версия формата : Version 2
Размер файла : 2,53 Гбайт
Продолжительность : 2 ч. 13 м.
Общий поток : 2716 Кбит/сек
Дата кодирования : UTC 2012-04-05 12:13:05
Программа кодирования : mkvmerge v4.0.0 ('The Stars were mine') сборка от Jun 6 2010 16:18:42
Библиотека кодирования : libebml v1.0.0 + libmatroska v1.0.0
Видео
Идентификатор : 1
Формат : MPEG-4 Visual
Профиль формата : Advanced [email protected]
Параметр BVOP формата : Да
Параметр QPel формата : Нет
Параметр GMC формата : Без точки перехода
Параметр матрицы формата : Default (MPEG)
Идентификатор кодека : XVID
Идентификатор кодека/Подсказка : XviD
Продолжительность : 2 ч. 13 м.
Битрейт : 1894 Кбит/сек
Ширина : 720 пикселей
Высота : 400 пикселей
Соотношение сторон : 16:9
Частота кадров : 23,976 кадра/сек
Цветовое пространство : YUV
Субдискретизация насыщенности : 4:2:0
Битовая глубина : 8 бит
Тип развёртки : Прогрессивная
Метод сжатия : С потерями
Бит/(Пиксели*Кадры) : 0.274
Размер потока : 1,76 Гбайт (70%)
Библиотека кодирования : XviD 1.1.2 (UTC 2006-11-01)
Аудио #1
Идентификатор : 2
Формат : AC-3
Формат/Информация : Audio Coding 3
Расширение режима : CM (complete main)
Идентификатор кодека : A_AC3
Продолжительность : 2 ч. 13 м.
Вид битрейта : Постоянный
Битрейт : 384 Кбит/сек
Каналы : 6 каналов
Расположение каналов : Front: L C R, Side: L R, LFE
Частота : 48,0 КГц
Битовая глубина : 16 бит
Метод сжатия : С потерями
Размер потока : 366 Мбайт (14%)
Язык : Russian
Аудио #2
Идентификатор : 3
Формат : AC-3
Формат/Информация : Audio Coding 3
Расширение режима : CM (complete main)
Идентификатор кодека : A_AC3
Продолжительность : 2 ч. 13 м.
Вид битрейта : Постоянный
Битрейт : 384 Кбит/сек
Каналы : 6 каналов
Расположение каналов : Front: L C R, Side: L R, LFE
Частота : 48,0 КГц
Битовая глубина : 16 бит
Метод сжатия : С потерями
Размер потока : 366 Мбайт (14%)
Язык : English
Текст #1
Идентификатор : 4
Формат : UTF-8
Идентификатор кодека : S_TEXT/UTF8
Идентификатор кодека/Информация : UTF-8 Plain Text
Язык : Russian
Текст #2
Идентификатор : 5
Формат : UTF-8
Идентификатор кодека : S_TEXT/UTF8
Идентификатор кодека/Информация : UTF-8 Plain Text
Язык : English
Download / Скачать

Хотите скачать бесплатно? Зарегистрируйтесь на сайте (ссылка на регистрацию). Pirat.ca - самый быстрый торрент трекер в рунете!

Как скачивать  ·   Что такое торрент  ·   Рейтинг и ограничения

Пост 05-Апр-2012 16:48 (спустя 24 минуты)

Топик был перенесен из форума Мультипликация в форум Зарубежные полнометражные мультфильмы

zyyx
 

dron161rus

Шкипер

Пост 05-Апр-2012 19:17 (спустя 2 часа 52 минуты)

[Q] 

занимательно
[Профиль]  [ЛС] 

Filimonia

Корсар

Пост 07-Апр-2012 16:36 (спустя 1 день 21 час)

[Q] 

[Профиль]  [ЛС] 

Rainbowen

Шкипер

Пост 28-Ноя-2012 23:10 (спустя 7 месяцев 21 день)

[Q] 

.u
[Профиль]  [ЛС] 
Показать сообщения:    
Ответить на тему

Текущее время: Сегодня 22:32

Часовой пояс: GMT + 4



Вы не можете начинать темы
Вы не можете отвечать на сообщения
Вы не можете редактировать свои сообщения
Вы не можете удалять свои сообщения
Вы не можете голосовать в опросах
Вы не можете прикреплять файлы к сообщениям
Вы не можете скачивать файлы

▼ Вниз