ML
     
  Уважаемый Гость!
Вы можете поддержать проект и зарегистрироваться у наших партнеров - онлайн-стратегия MyLands. При регистрации в игре Вы получите код, который сможете активировать после регистрации на pirat.ca и получить 1000 дублонов.

Ваш код:
193c38d0130f05c24de871678ea3ac181461757d
 
     

Гандахар / Gandahar (Рене Лалу / Renе Laloux) [1988 г., фантастика, приключения, DVDRip] MVO + Original + Sub

Ответить на тему
 
Автор
Сообщение

Пост 06-Апр-2012 12:38

[Q] 

Linnan

Гандахар / Gandahar
Год выпуска: 1988
Мировая премьера: 18 января 1988
Дата выхода DVD: 19 ноября 2009
Производство: Франция
Жанр: фантастика, приключения
Продолжительность: 01:19:24
Перевод: Профессиональный (многоголосый, закадровый)
Оригинальный аудиопоток: французский
Субтитры: русские
Режиссер: Рене Лалу / Renе Laloux
В ролях
Пьер-Мари Эскурру, Катрин Шевалье, Жорж Вильсон, Анни Дюпре, Жан-Пьерр Дюкос, Кристин Пэрис, Зайра Бенабари, Клод Дельям, Оливье Крувелье, Жан-Пьер Жорри
Описание
Гандахару — оазису мирной жизни в центре неспокойной галактики угрожает страшная таинственная сила. Молодому воину, принцу Сильвину поручено узнать, что скрывается за этой тайной. Сначала он подвергается нападению гигантских хищных птиц.
Спасшись от них с помощью трансформеров — жертв неудачных генетических экспериментов, он обнаруживает источник угрозы — армию металлических воинов, находящихся на службе у злобного Метаморфиса — искусственного супермозга, обладающего огромной силой.

Источник/Качество: DVDRip
Формат: MKV
Видео кодек: DivX
Аудио кодек: AC3
Видео: 704х512, 25 fps, 1508 kbps, 0.167 b/px
Аудио: Русский - 448 kbps, 6 ch, 48 КHz
Аудио #2: Французский - 448 kbps, 6 ch, 48 КHz
Общее
Уникальный идентификатор : 238066284713118096737626934055659537947 (0xB319E60DC84483FD91295F197612861B)
Полное имя : F:\Загрузки торрента\Gandahar [pirat.ca].mkv
Формат : Matroska
Версия формата : Version 2
Размер файла : 1,36 Гбайт
Продолжительность : 1 ч. 19 м.
Общий поток : 2453 Кбит/сек
Дата кодирования : UTC 2012-04-06 08:38:11
Программа кодирования : mkvmerge v4.0.0 ('The Stars were mine') сборка от Jun 6 2010 16:18:42
Библиотека кодирования : libebml v1.0.0 + libmatroska v1.0.0
Видео
Идентификатор : 1
Формат : MPEG-4 Visual
Параметр BVOP формата : Да
Параметр QPel формата : Нет
Параметр GMC формата : Без точки перехода
Параметр матрицы формата : Default (H.263)
Идентификатор кодека : DX50
Идентификатор кодека/Подсказка : DivX 5
Продолжительность : 1 ч. 19 м.
Битрейт : 1508 Кбит/сек
Ширина : 704 пикселя
Высота : 512 пикселей
Соотношение сторон : 1,375
Частота кадров : 25,000 кадров/сек
Цветовое пространство : YUV
Субдискретизация насыщенности : 4:2:0
Битовая глубина : 8 бит
Тип развёртки : Прогрессивная
Метод сжатия : С потерями
Бит/(Пиксели*Кадры) : 0.167
Размер потока : 857 Мбайт (61%)
Библиотека кодирования : DivX 5.2.1 (WaffleDay) (UTC 2004-09-08)
Аудио #1
Идентификатор : 2
Формат : AC-3
Формат/Информация : Audio Coding 3
Расширение режима : CM (complete main)
Идентификатор кодека : A_AC3
Продолжительность : 1 ч. 19 м.
Вид битрейта : Постоянный
Битрейт : 448 Кбит/сек
Каналы : 6 каналов
Расположение каналов : Front: L C R, Side: L R, LFE
Частота : 48,0 КГц
Битовая глубина : 16 бит
Метод сжатия : С потерями
Размер потока : 254 Мбайт (18%)
Язык : Russian
Аудио #2
Идентификатор : 3
Формат : AC-3
Формат/Информация : Audio Coding 3
Расширение режима : CM (complete main)
Идентификатор кодека : A_AC3
Продолжительность : 1 ч. 19 м.
Вид битрейта : Постоянный
Битрейт : 448 Кбит/сек
Каналы : 6 каналов
Расположение каналов : Front: L C R, Side: L R, LFE
Частота : 48,0 КГц
Битовая глубина : 16 бит
Метод сжатия : С потерями
Размер потока : 254 Мбайт (18%)
Язык : French
Текст
Идентификатор : 4
Формат : UTF-8
Идентификатор кодека : S_TEXT/UTF8
Идентификатор кодека/Информация : UTF-8 Plain Text
Download / Скачать

Хотите скачать бесплатно? Зарегистрируйтесь на сайте (ссылка на регистрацию). Pirat.ca - самый быстрый торрент трекер в рунете!

Как скачивать  ·   Что такое торрент  ·   Рейтинг и ограничения

Пост 06-Апр-2012 13:39 (спустя 1 час)

Топик был перенесен из форума Мультипликация в форум Зарубежные полнометражные мультфильмы

erchine
 

avesnake

Лоцман

Пост 10-Сен-2012 15:28 (спустя 5 месяцев 4 дня)

[Q] 

Linnan, верните раздачу плиз
[Профиль]  [ЛС] 
Показать сообщения:    
Ответить на тему

Текущее время: Сегодня 18:06

Часовой пояс: GMT + 4



Вы не можете начинать темы
Вы не можете отвечать на сообщения
Вы не можете редактировать свои сообщения
Вы не можете удалять свои сообщения
Вы не можете голосовать в опросах
Вы не можете прикреплять файлы к сообщениям
Вы не можете скачивать файлы

▼ Вниз