ML
     
  Уважаемый Гость!
Вы можете поддержать проект и зарегистрироваться у наших партнеров - онлайн-стратегия MyLands. При регистрации в игре Вы получите код, который сможете активировать после регистрации на pirat.ca и получить 1000 дублонов.

Ваш код:
cc3be08b7507661c03e0a2f582d0da3a659ea55a
 
     

Дельфин: История мечтателя / The Dolphin: Story of a Dreamer (Эдуардо Шульдт / Eduardo Schuldt) [2009 г., приключения, фантастика, семейный, DVDRip] (MVO)

Ответить на тему
 
Автор
Сообщение

Пост 04-Дек-2011 16:41

[Q] 

Sirota

Легенда

Дельфин: История мечтателя / The Dolphin: Story of a Dreamer Год выпуска: 2009
Мировая премьера: 6 октября 2009
Дата выхода DVD: 9 декабря 2010, «Новый Диск»
Производство: Германия, Италия, Перу
Жанр: приключения, фантастика, семейный
Продолжительность: 01:24:10
Перевод: профессиональный (многоголосый, закадровый)
Оригинальный аудиопоток: Английский
Режиссер: Эдуардо Шульдт / Eduardo Schuldt
В ролях: Робби Дэймонд
Дебра Л. Рефаши
Майкл Феррери
Стивен Бут
Мерилин А. Биллон
Dino Gervasoni
Кори Дж. Хольтцберг
Мелисса ЛаФоур
Дина Монако-Боланд
Брайан В. Робертс
Описание: Удивительная история дельфина Даниэля, который отправляется в невероятное путешествию по океану, где его подстерегают различные опасности.
Доп. информация: сценарий Джуди Келлем, Эдуардо Шульдт, Michael Wogh,
продюсер Хоаким Хеллингер, Томас Мюллер, Лоренцо фон Лёрх
композитор Антонио Гервасони
художник Флавио Капорали, Линколь Агуй Найера
монтаж Акулис Бретон Ичикава
IMDB, КиноПоиск
Источник/Качество: DVDRip
Формат: AVI
Видео кодек: XviD
Аудио кодек: AC3
Видео: 720x400 (1.80:1), 25 fps, XviD build 47 ~1857 kbps avg, 0.26 bit/pixel
Аудио: Rus 48 kHz, AC3 Dolby Digital, 2/0 (L,R) ch, ~224.00 kbps avg
Аудио #2: Eng 48 kHz, AC3 Dolby Digital, 2/0 (L,R) ch, ~224.00 kbps avg
Субтитры: нет
General
Format : AVI
Format/Info : Audio Video Interleave
File size : 1.36 GiB
Duration : 1h 24mn
Overall bit rate : 2 321 Kbps
Writing application : VirtualDubMod 1.5.4.1 (build 2178/release)
Writing library : VirtualDubMod build 2178/release
Video #0
ID : 0
Format : MPEG-4 Visual
Format profile : [email protected]
Format settings, BVOP : Yes
Format settings, QPel : No
Format settings, GMC : No warppoints
Format settings, Matrix : Custom
Codec ID : XVID
Codec ID/Hint : XviD
Duration : 1h 24mn
Bit rate : 1 859 Kbps
Width : 720 pixels
Height : 400 pixels
Display aspect ratio : 16:9
Frame rate : 25.000 fps
Resolution : 24 bits
Colorimetry : 4:2:0
Scan type : Progressive
Bits/(Pixel*Frame) : 0.258
Stream size : 1.09 GiB (80%)
Writing library : XviD 1.2.0.dev47 (UTC 2006-11-01)
Audio #1
ID : 1
Format : AC-3
Format/Info : Audio Coding 3
Codec ID : 2000
Duration : 1h 24mn
Bit rate mode : Constant
Bit rate : 224 Kbps
Channel(s) : 2 channels
Channel positions : L R
Sampling rate : 48.0 KHz
Stream size : 135 MiB (10%)
Alignment : Split accross interleaves
Interleave, duration : 40 ms (1.00 video frame)
Interleave, preload duration : 500 ms
Audio #2
ID : 2
Format : AC-3
Format/Info : Audio Coding 3
Codec ID : 2000
Duration : 1h 24mn
Bit rate mode : Constant
Bit rate : 224 Kbps
Channel(s) : 2 channels
Channel positions : L R
Sampling rate : 48.0 KHz
Stream size : 135 MiB (10%)
Alignment : Split accross interleaves
Interleave, duration : 40 ms (1.00 video frame)
Interleave, preload duration : 500 ms
-
-Релиз подготовлен:

-
-
Download / Скачать

Хотите скачать бесплатно? Зарегистрируйтесь на сайте (ссылка на регистрацию). Pirat.ca - самый быстрый торрент трекер в рунете!

Как скачивать  ·   Что такое торрент  ·   Рейтинг и ограничения

Пост 04-Дек-2011 16:46 (спустя 5 минут)

Топик был перенесен из форума Мультипликация в форум Зарубежные полнометражные мультфильмы

zyyx
 

CHARLI2236

1097

Пост 30-Окт-2012 13:02 (спустя 10 месяцев 25 дней)

[Q] 

спс

_________________
[Профиль]  [ЛС] 
Показать сообщения:    
Ответить на тему

Текущее время: Сегодня 05:10

Часовой пояс: GMT + 4



Вы не можете начинать темы
Вы не можете отвечать на сообщения
Вы не можете редактировать свои сообщения
Вы не можете удалять свои сообщения
Вы не можете голосовать в опросах
Вы не можете прикреплять файлы к сообщениям
Вы не можете скачивать файлы

▼ Вниз