ML
     
  Уважаемый Гость!
Вы можете поддержать проект и зарегистрироваться у наших партнеров - онлайн-стратегия MyLands. При регистрации в игре Вы получите код, который сможете активировать после регистрации на pirat.ca и получить 1000 дублонов.

Ваш код:
5f4e94775bc0501caff7b254e79328d304c817d9
 
     

Атлантида: Затерянный мир / Atlantis: The Lost Empire (Гари Труздейл, Кирк Уайз / Gary Trousdale, Kirk Wise) [2001 г., боевик, фэнтези, приключения, семейный, DVDRip] (Dub)

Ответить на тему
 
Автор
Сообщение

Пост 04-Дек-2011 17:17

[Q] 

Sirota

Легенда

Атлантида: Затерянный мир / Atlantis: The Lost Empire Год выпуска: 2001
Мировая премьера: 3 июня 2001
Российская премьера: 20 декабря 2001, «Каскад»
Дата выхода DVD: 26 апреля 2011, «Уолт Дисней Компани СНГ»
Производство: США
Жанр: боевик, фэнтези, приключения, семейный
Продолжительность: 01:31:50
Перевод: профессиональный (полное дублирование) лицензия
Автор(ы) перевода: Андрей Матвеев, Игорь Шибанов, Ирина Коновалова, Николай Буров, Марк Макаренков
Режиссер: Гари Труздейл, Кирк Уайз / Gary Trousdale, Kirk Wise
В ролях: Майкл Дж. Фокс
Кори Бертон
Клаудия Кристиан
Джеймс Гарнер
Джон Махони
Фил Моррис
Леонард Нимой
Дон Новелло
Жаклин Обрадорс
Флоренс Стэнли
Описание: Атлантида… Мечтою найти легендарный затонувший в пучинах океана остров грезили многие смельчаки. Но только юному картографу Майло Тэтчу повезло: в 1914 году в его руки попал таинственный дневник, указывающий путь к Затерянной империи. И вот уже самая могучая подводная лодка в мире под командованием неустрашимого капитана Рурка выходит в открытый океан.
Майло и его спутников ждет множество незабываемых приключений, превосходящих все похождения капитана Немо: схватка с морским чудовищем, древние загадки, буйство стихий, мистические силы и даже встреча с цивилизацией атлантов! И это лишь малая толика того, что ждет героев на их пути к тайнам великой Атлантиды.
Доп. информация: сценарий Дэвид Рейнольдс, Джосс Уидон, Тэб Мёрфи,
продюсер Дон Хан, Кендра Халланд
композитор Джеймс Ньютон Ховард
художник Мэтт Кодд, Рикардо Ф. Делгадо, Джим Мартин,
монтаж Эллен Кенеши
бюджет $120 000 000
сборы в США $84 056 472
сборы в мире + $101 997 253 = $186 053 725

Вторая часть здесь: Атлантида: Возвращение Майло / Atlantis: Milo's Return (Тоби Шелтон, Виктор А. Кук / Victor Cook, Toby Shelton) [2003 г., боевик, комедия, приключения, семейный, DVDRip] (MVO)
IMDB, КиноПоиск
Источник/Качество: DVDRip
Формат: AVI
Видео кодек: XviD
Аудио кодек: AC3
Видео: 656x496 (1.32:1), 25 fps, XviD build 47 ~1742 kbps avg, 0.21 bit/pixel
Аудио: 48 kHz, AC3 Dolby Digital, 3/2 (L,C,R,l,r) + LFE ch, ~384.00 kbps avg
Субтитры: нет
General
Format : AVI
Format/Info : Audio Video Interleave
File size : 1.37 GiB
Duration : 1h 31mn
Overall bit rate : 2 133 Kbps
Writing application : VirtualDubMod 1.5.4.1 (build 2178/release)
Writing library : VirtualDubMod build 2178/release
Video #0
ID : 0
Format : MPEG-4 Visual
Format profile : [email protected]
Format settings, BVOP : Yes
Format settings, QPel : No
Format settings, GMC : No warppoints
Format settings, Matrix : Custom
Codec ID : XVID
Codec ID/Hint : XviD
Duration : 1h 31mn
Bit rate : 1 743 Kbps
Width : 656 pixels
Height : 496 pixels
Display aspect ratio : 4:3
Frame rate : 25.000 fps
Resolution : 24 bits
Colorimetry : 4:2:0
Scan type : Progressive
Bits/(Pixel*Frame) : 0.214
Stream size : 1.12 GiB (82%)
Writing library : XviD 1.2.0.dev47 (UTC 2006-11-01)
Audio #1
ID : 1
Format : AC-3
Format/Info : Audio Coding 3
Codec ID : 2000
Duration : 1h 31mn
Bit rate mode : Constant
Bit rate : 384 Kbps
Channel(s) : 6 channels
Channel positions : Front: L C R, Surround: L R, LFE
Sampling rate : 48.0 KHz
Video delay : 15ms
Stream size : 252 MiB (18%)
Alignment : Split accross interleaves
Interleave, duration : 96 ms (2.40 video frames)
Interleave, preload duration : 96 ms
Language : Russian
-
-Релиз подготовлен:

-
-
Download / Скачать

Хотите скачать бесплатно? Зарегистрируйтесь на сайте (ссылка на регистрацию). Pirat.ca - самый быстрый торрент трекер в рунете!

Как скачивать  ·   Что такое торрент  ·   Рейтинг и ограничения



Последний раз редактировалось: Sirota (2011-12-14 22:47), всего редактировалось 1 раз

Пост 04-Дек-2011 17:42 (спустя 25 минут)

Топик был перенесен из форума Мультипликация в форум Зарубежные полнометражные мультфильмы

zyyx
 

CHARLI2236

1089

Пост 30-Окт-2012 12:49 (спустя 10 месяцев 25 дней)

[Q] 

спасибо

_________________
[Профиль]  [ЛС] 

Dejavu_Dmitry

Морской Волк

Пост 16-Фев-2014 12:14 (спустя 1 год 3 месяца)

[Q] 

Классный добрый мультфильм. Спасибо!!! Супер!
[Профиль]  [ЛС] 

GnomKa

Шкипер

Пост 23-Фев-2014 23:32 (спустя 7 дней)

[Q] 

Спасибо!!!

_________________
Человек человеку волк, а зомби зомби зомби
[Профиль]  [ЛС] 

Alexe10

Гроза морей

36

Пост 23-Окт-2014 07:28 (спустя 7 месяцев 27 дней)

[Q] 

Спасибо!!!
[Профиль]  [ЛС] 
Показать сообщения:    
Ответить на тему

Текущее время: Сегодня 15:36

Часовой пояс: GMT + 4



Вы не можете начинать темы
Вы не можете отвечать на сообщения
Вы не можете редактировать свои сообщения
Вы не можете удалять свои сообщения
Вы не можете голосовать в опросах
Вы не можете прикреплять файлы к сообщениям
Вы не можете скачивать файлы

▼ Вниз