ML
     
  Уважаемый Гость!
Вы можете поддержать проект и зарегистрироваться у наших партнеров - онлайн-стратегия MyLands. При регистрации в игре Вы получите код, который сможете активировать после регистрации на pirat.ca и получить 1000 дублонов.

Ваш код:
a978488e62322cd72e113ab723b8a7fdc10eb9b9
 
     

Подвиги Футрота: Рассказ его верного пса / Footrot Flats: The Dog's Tale (Мюррей Болл / Murray Ball) [1987 г.] (приключения, комедия, семейный) [DVDRip] (MVO)

Ответить на тему
 
Автор
Сообщение

Пост 04-Дек-2011 17:31

[Q] 

Андря

Подвиги Футрота: Рассказ его верного пса / Footrot Flats: The Dog's Tale
Год выпуска: 1987
Мировая премьера: 9 апреля 1987
Производство: Австралия, Новая Зеландия
Жанр: приключения, комедия, семейный
Продолжительность: 01:07:49
Перевод: профессиональный (многоголосый, закадровый)
Субтитры: нет
Режиссер: Мюррей Болл/ Murray Ball
Описание: Мультипликационный фильм о полной приключений жизни на новозеландской ферме, где, наряду с людьми, главными действующими лицами являются животные: овцы, собаки, олени, кошки… Отважный пес Футрот помогает своим четвероногим друзьям в неравной борьбе с браконьерами братьями Мерфи.
Доп. информация: сценарий Мюррэй Болл, Том Скотт
продюсер Джон Барнетт, Пэт Кокс
композитор Dave Dobbyn
монтаж Майкл Хортон, Дэнис Джонс
Источник/Качество: DVDRip
Формат: AVI
Видео кодек: XviD
Аудио кодек: MP3
Видео: 704x512 (1.38:1), 25 fps, XviD MPEG-4 ~1195 kbps avg, 0.13 bit/pixel
Аудио: 48 kHz, MPEG Layer 3, 2 ch, ~192.00 kbps avg
General
Format : AVI
Format/Info : Audio Video Interleave
File size : 680 MiB
Duration : 1h 7mn
Overall bit rate : 1 401 Kbps
Writing application : Lavf52.0.0
Video
Format : xvid
Codec ID : xvid
Duration : 1h 7mn
Bit rate : 1 197 Kbps
Width : 704 pixels
Height : 512 pixels
Display aspect ratio : 1.375
Frame rate : 25.000 fps
Resolution : 24 bits
Bits/(Pixel*Frame) : 0.133
Stream size : 580 MiB (85%)
Audio #1
ID : 1
Format : MPEG Audio
Format version : Version 1
Format profile : Layer 3
Codec ID : 55
Codec ID/Hint : MP3
Duration : 1h 7mn
Bit rate mode : Constant
Bit rate : 192 Kbps
Channel(s) : 2 channels
Sampling rate : 48.0 KHz
Resolution : 16 bits
Stream size : 93.1 MiB (14%)
Alignment : Aligned on interleaves
Interleave, duration : 24 ms (0.60 video frame)
Download / Скачать

Хотите скачать бесплатно? Зарегистрируйтесь на сайте (ссылка на регистрацию). Pirat.ca - самый быстрый торрент трекер в рунете!

Как скачивать  ·   Что такое торрент  ·   Рейтинг и ограничения

Пост 04-Дек-2011 17:42 (спустя 10 минут)

Топик был перенесен из форума Мультипликация в форум Зарубежные полнометражные мультфильмы

zyyx
 
Показать сообщения:    
Ответить на тему

Текущее время: Сегодня 22:06

Часовой пояс: GMT + 4



Вы не можете начинать темы
Вы не можете отвечать на сообщения
Вы не можете редактировать свои сообщения
Вы не можете удалять свои сообщения
Вы не можете голосовать в опросах
Вы не можете прикреплять файлы к сообщениям
Вы не можете скачивать файлы

▼ Вниз