ML
     
  Уважаемый Гость!
Вы можете поддержать проект и зарегистрироваться у наших партнеров - онлайн-стратегия MyLands. При регистрации в игре Вы получите код, который сможете активировать после регистрации на pirat.ca и получить 1000 дублонов.

Ваш код:
11f49771fdf057c9d51610e4a0925c3b46ddb655
 
     

Иллюзионист / The Illusionist (Сильвен Шомэ / Sylvain Chomet) [2010 г., приключения, драма, комедия, семейный, BDRip] (MVO)

Ответить на тему
 
Автор
Сообщение

Пост 04-Дек-2011 17:57

[Q] 

Sirota

Легенда

Иллюзионист / The Illusionist Год выпуска: 2010
Мировая премьера: 16 февраля 2010
Российская премьера: 16 декабря 2010, «Кино без границ»
Дата выхода DVD: 31 марта 2011, «Новый Диск»
Производство: Франция, Великобритания
Жанр: приключения, драма, комедия, семейный
Продолжительность: 01:19:5
Перевод: профессиональный (многоголосый, закадровый)
Оригинальный аудиопоток: Французский
Режиссер: Сильвен Шомэ / Sylvain Chomet
В ролях: Жан-Клод Донда
Эдит Ранкин
Дункан МакНил
Рэймонд Мирнс
Джеймс Т. Мьюир
Том Ури
Пол Бэнди
Описание: Действие мультфильма разворачивается в Шотландии, в конце 1950-х гг. Сюжет вращается вокруг злоключений фокусника, который попадает в закрытое сообщество и встречает девушку, которая убеждена, что он — настоящий волшебник
Доп. информация: сценарий Жак Тати, Сильвен Шомэ
продюсер Боб Ласт, Филипп Каркассонне, Джэйк Эбертс,
композитор Сильвен Шомэ
художник Жак Арекс, Бьярне Хансен
бюджет £11 000 000
сборы в США $2 231 474
сборы в мире + $3 370 957 = $5 602 431

Сэмпл, IMDB, КиноПоиск
Источник/Качество: BDRip
Формат: AVI
Видео кодек: XviD
Аудио кодек: AC3
Видео: 720x384 (1.88:1), 23.976 fps, XviD build 63 ~1917 kbps avg, 0.29 bit/pixel
Аудио: Russian 48 kHz, AC3 Dolby Digital, 2/0 (L,R) ch, ~224.00 kbps avg
Аудио #2: French 48 kHz, AC3 Dolby Digital, 3/2 (L,C,R,l,r) + LFE ch, ~448.00 kbps avg
Субтитры: нет
Оскар, 2011 год
Номинации (1):
Лучший анимационный фильм
Золотой глобус, 2011 год
Номинации (1):
Лучший анимационный фильм
Сезар, 2011 год
Победитель (1):
Лучший анимационный фильм
Европейская киноакадемия, 2010 год
Победитель (1):
Лучший анимационный фильм
General
Format : AVI
Format/Info : Audio Video Interleave
File size : 1.45 GiB
Duration : 1h 19mn
Overall bit rate : 2 604 Kbps
Writing application : VirtualDubMod 1.5.10.2 (build 2542/release)
Writing library : VirtualDubMod build 2542/release
Video #0
ID : 0
Format : MPEG-4 Visual
Format profile : [email protected]
Format settings, BVOP : Yes
Format settings, QPel : No
Format settings, GMC : No warppoints
Format settings, Matrix : Custom
Codec ID : XVID
Codec ID/Hint : XviD
Duration : 1h 19mn
Bit rate : 1 918 Kbps
Width : 720 pixels
Height : 384 pixels
Display aspect ratio : 1.875
Frame rate : 23.976 fps
Resolution : 24 bits
Colorimetry : 4:2:0
Scan type : Progressive
Bits/(Pixel*Frame) : 0.289
Stream size : 1.07 GiB (74%)
Writing library : XviD 63
Audio #1
ID : 1
Format : AC-3
Format/Info : Audio Coding 3
Codec ID : 2000
Duration : 1h 19mn
Bit rate mode : Constant
Bit rate : 224 Kbps
Channel(s) : 2 channels
Channel positions : L R
Sampling rate : 48.0 KHz
Stream size : 128 MiB (9%)
Alignment : Split accross interleaves
Interleave, duration : 42 ms (1.00 video frame)
Interleave, preload duration : 500 ms
Audio #2
ID : 2
Format : AC-3
Format/Info : Audio Coding 3
Codec ID : 2000
Duration : 1h 19mn
Bit rate mode : Constant
Bit rate : 448 Kbps
Channel(s) : 6 channels
Channel positions : Front: L C R, Surround: L R, LFE
Sampling rate : 48.0 KHz
Stream size : 256 MiB (17%)
Alignment : Split accross interleaves
Interleave, duration : 42 ms (1.00 video frame)
Interleave, preload duration : 500 ms
-
-Релиз подготовлен:

-
-
Download / Скачать

Хотите скачать бесплатно? Зарегистрируйтесь на сайте (ссылка на регистрацию). Pirat.ca - самый быстрый торрент трекер в рунете!

Как скачивать  ·   Что такое торрент  ·   Рейтинг и ограничения

Пост 04-Дек-2011 18:17 (спустя 19 минут)

Топик был перенесен из форума Мультипликация в форум Зарубежные полнометражные мультфильмы

zyyx
 

LETHIK2010

Морской Волк

Пост 23-Янв-2012 11:36 (спустя 1 месяц 18 дней)

[Q] 

Спасибо! Посмотрим.
[Профиль]  [ЛС] 

BestPrint

Штурман

Пост 02-Мар-2012 01:43 (спустя 1 месяц 9 дней)

[Q] 

Не очень понравился, налюбителя
[Профиль]  [ЛС] 

CHARLI2236

1097

Пост 30-Окт-2012 13:08 (спустя 7 месяцев 28 дней)

[Q] 

спс

_________________
[Профиль]  [ЛС] 

Феонолини

Шкипер

Пост 18-Апр-2014 19:31 (спустя 1 год 5 месяцев)

[Q] 

Заценим мультфильм)

_________________
Где есть свет, всегда есть тень. Под светом счастья... Всегда есть тень отчаяния ...
Хун Мин
[Профиль]  [ЛС] 

shalonina

Гроза морей

Пост 26-Авг-2014 16:37 (спустя 4 месяца 7 дней)

[Q] 

посмотрим.....

_________________
[Профиль]  [ЛС] 

Alexe10

Гроза морей

36

Пост 23-Окт-2014 07:31 (спустя 1 месяц 27 дней)

[Q] 

На любителя
[Профиль]  [ЛС] 
Показать сообщения:    
Ответить на тему

Текущее время: Сегодня 03:09

Часовой пояс: GMT + 4



Вы не можете начинать темы
Вы не можете отвечать на сообщения
Вы не можете редактировать свои сообщения
Вы не можете удалять свои сообщения
Вы не можете голосовать в опросах
Вы не можете прикреплять файлы к сообщениям
Вы не можете скачивать файлы

▼ Вниз