ML
     
  Уважаемый Гость!
Вы можете поддержать проект и зарегистрироваться у наших партнеров - онлайн-стратегия MyLands. При регистрации в игре Вы получите код, который сможете активировать после регистрации на pirat.ca и получить 1000 дублонов.

Ваш код:
47bfc18b89c74e4ae0d974e9b6943639e2bff08e
 
     

Кевин в Стране Драконов: Магический Куб / The Magic Cube (Анхель Изкуэрдо / Ángel Izquierdo) [2006 г., фэнтези, приключения, семейный, DVDRip] (Dub)

Ответить на тему
 
Автор
Сообщение

Пост 04-Дек-2011 18:46

[Q] 

Sirota

Легенда

Кевин в Стране Драконов: Магический Куб / The Magic Cube Год выпуска: 2006
Мировая премьера: 22 декабря 2006
Производство: Испания
Жанр: фэнтези, приключения, семейный
Продолжительность: 01:12:15
Перевод: профессиональный (полное дублирование) лицензия
Режиссер: Анхель Изкуэрдо / Ángel Izquierdo
Описание: С тех пор, как злой волшебник Септимус и его слуга Тристан были заброшены на пустынный остров, в Стране Драконов воцарились мир и спокойствие. Жизнь идет своим чередом и все занимаются своими делами. Но Септимус находит способ вернуться назад с помощью Магического Куба, пропавшего более тысячи лет назад и обладающего величайшей волшебной силой.
И теперь обитателей Страны Драконов подстерегает страшная угроза, потому что Силы Зла рыщут по всей вселенной в поисках Магического Куба, который может принести множество бед жителям всех миров. Кевин, маленький дракон Элфи и их верные друзья снова вовлечены в череду захватывающих фантастических приключений. И только они могут отыскать Магический Куб, победить зло и вернуть в Страну драконов мир и благополучие.
Доп. информация: сценарий Антонио Зурера
продюсер Анхель Изкуэрдо, Кармен Перез, Антонио Зурера,
композитор Emilio Alquézar
художник Анхель Изкуэрдо
монтаж Анхель Изкуэрдо
IMDB, КиноПоиск
Источник/Качество: DVDRip
Формат: AVI
Видео кодек: XviD
Аудио кодек: AC3
Видео: 704x400 (1.76:1), 25 fps, XviD build 50 ~2397 kbps avg, 0.34 bit/pixel
Аудио: 48 kHz, AC3 Dolby Digital, 2/0 (L,R) ch, ~192.00 kbps avg
Субтитры: нет
Гойя, 2007 год
Номинации (1):
Лучший анимационный фильм
General
Format : AVI
Format/Info : Audio Video Interleave
File size : 1.31 GiB
Duration : 1h 12mn
Overall bit rate : 2 599 Kbps
Writing application : VirtualDubMod 1.5.10.3 (build 2550/release)
Writing library : VirtualDubMod build 2550/release
Video #0
ID : 0
Format : MPEG-4 Visual
Format profile : [email protected]
Format settings, BVOP : Yes
Format settings, QPel : No
Format settings, GMC : No warppoints
Format settings, Matrix : Default (MPEG)
Codec ID : XVID
Codec ID/Hint : XviD
Duration : 1h 12mn
Bit rate : 2 398 Kbps
Width : 704 pixels
Height : 400 pixels
Display aspect ratio : 16:9
Frame rate : 25.000 fps
Resolution : 24 bits
Colorimetry : 4:2:0
Scan type : Progressive
Bits/(Pixel*Frame) : 0.341
Stream size : 1.21 GiB (92%)
Writing library : XviD 1.2.1 (UTC 2008-12-04)
Audio #1
ID : 1
Format : AC-3
Format/Info : Audio Coding 3
Codec ID : 2000
Duration : 1h 12mn
Bit rate mode : Constant
Bit rate : 192 Kbps
Channel(s) : 2 channels
Channel positions : L R
Sampling rate : 48.0 KHz
Stream size : 99.2 MiB (7%)
Alignment : Split accross interleaves
Interleave, duration : 40 ms (1.00 video frame)
Interleave, preload duration : 500 ms
-
-Релиз подготовлен:

-
-
Download / Скачать

Хотите скачать бесплатно? Зарегистрируйтесь на сайте (ссылка на регистрацию). Pirat.ca - самый быстрый торрент трекер в рунете!

Как скачивать  ·   Что такое торрент  ·   Рейтинг и ограничения

Пост 04-Дек-2011 18:47 (спустя 1 минута)

Топик был перенесен из форума Мультипликация в форум Зарубежные полнометражные мультфильмы

zyyx
 

CHARLI2236

1097

Пост 30-Окт-2012 13:10 (спустя 10 месяцев 25 дней)

[Q] 

благодарю

_________________
[Профиль]  [ЛС] 
Показать сообщения:    
Ответить на тему

Текущее время: Сегодня 07:02

Часовой пояс: GMT + 4



Вы не можете начинать темы
Вы не можете отвечать на сообщения
Вы не можете редактировать свои сообщения
Вы не можете удалять свои сообщения
Вы не можете голосовать в опросах
Вы не можете прикреплять файлы к сообщениям
Вы не можете скачивать файлы

▼ Вниз