ML
     
  Уважаемый Гость!
Вы можете поддержать проект и зарегистрироваться у наших партнеров - онлайн-стратегия MyLands. При регистрации в игре Вы получите код, который сможете активировать после регистрации на pirat.ca и получить 1000 дублонов.

Ваш код:
34514219cfad5497a1822ecc1269bea77988f9aa
 
     

Огонь и лед / Fire and Ice (Ральф Бакши / Ralph Bakshi) [1983 г., фэнтези, боевик, приключения, семейный, BDRip] (MVO)

Ответить на тему
 
Автор
Сообщение

Пост 04-Дек-2011 19:23

[Q] 

Sirota

Легенда

Огонь и лед / Fire and Ice Год выпуска: 1983
Мировая премьера: 25 марта 1983
Производство: США
Жанр: фэнтези, боевик, приключения, семейный
Продолжительность: 01:21:38
Перевод: профессиональный (многоголосый, закадровый)
Режиссер: Ральф Бакши / Ralph Bakshi
В ролях: Рэнди Нортон
Синтия Лик
Стив Сэндор
Шон Хэннон
Лео Гордон
William Ostrander
Эйлин О’Нейлл
Элизабет Ллойд Шоу
Мики Мортон
Тамара Парк
Описание: Давным-давно, в незапамятные времена, в мире разразилась война между королевством льда и царством огня. Под натиском черной магии повелителя льдов Некрона, силы Джарела, повелителя огня, отступают все дальше на юг. Доблестный воитель Ларн и его таинственный спутник Черная Маска встают на защиту добра и справедливости. Они должны спасти прекрасную принцессу Тигру и избавить народы от злобного Некрона.
Доп. информация: сценарий Джерри Конуэй, Рой Томас, Ральф Бакши,
продюсер Ральф Бакши, Фрэнк Фразетта, Lynne Betner,
оператор Френсис Груманн
композитор Уильям Крафт
художник Фрэнк Фразетта
монтаж А. Дэвид Маршалл
IMDB, КиноПоиск
Источник/Качество: BDRip
Формат: AVI
Видео кодек: XviD
Аудио кодек: AC3
Видео: 720x400 (1.80:1), 23.976 fps, XviD build 63 ~2108 kbps avg, 0.30 bit/pixel
Аудио: 48 kHz, AC3 Dolby Digital, 3/2 (L,C,R,l,r) + LFE ch, ~448.00 kbps avg
Субтитры: нет
General
Format : AVI
Format/Info : Audio Video Interleave
File size : 1.46 GiB
Duration : 1h 21mn
Overall bit rate : 2 566 Kbps
Writing application : VirtualDubMod 1.5.10.2 (build 2540/release)
Writing library : VirtualDubMod build 2540/release
Video #0
ID : 0
Format : MPEG-4 Visual
Format profile : [email protected]
Format settings, BVOP : Yes
Format settings, QPel : No
Format settings, GMC : No warppoints
Format settings, Matrix : Default (MPEG)
Codec ID : XVID
Codec ID/Hint : XviD
Duration : 1h 21mn
Bit rate : 2 109 Kbps
Width : 720 pixels
Height : 400 pixels
Display aspect ratio : 16:9
Frame rate : 23.976 fps
Resolution : 24 bits
Colorimetry : 4:2:0
Scan type : Progressive
Bits/(Pixel*Frame) : 0.305
Stream size : 1.20 GiB (82%)
Writing library : XviD 63
Audio #1
ID : 1
Format : AC-3
Format/Info : Audio Coding 3
Codec ID : 2000
Duration : 1h 21mn
Bit rate mode : Constant
Bit rate : 448 Kbps
Channel(s) : 6 channels
Channel positions : Front: L C R, Surround: L R, LFE
Sampling rate : 48.0 KHz
Stream size : 262 MiB (17%)
Alignment : Split accross interleaves
Interleave, duration : 42 ms (1.00 video frame)
Interleave, preload duration : 500 ms
-
-Релиз подготовлен:

-
-
Download / Скачать

Хотите скачать бесплатно? Зарегистрируйтесь на сайте (ссылка на регистрацию). Pirat.ca - самый быстрый торрент трекер в рунете!

Как скачивать  ·   Что такое торрент  ·   Рейтинг и ограничения

Пост 04-Дек-2011 19:28 (спустя 4 минуты)

Топик был перенесен из форума Мультипликация в форум Зарубежные полнометражные мультфильмы

CaptRom
 

CHARLI2236

1089

Пост 30-Окт-2012 13:21 (спустя 10 месяцев 25 дней)

[Q] 

благодарю

_________________
[Профиль]  [ЛС] 
Показать сообщения:    
Ответить на тему

Текущее время: Сегодня 07:51

Часовой пояс: GMT + 4



Вы не можете начинать темы
Вы не можете отвечать на сообщения
Вы не можете редактировать свои сообщения
Вы не можете удалять свои сообщения
Вы не можете голосовать в опросах
Вы не можете прикреплять файлы к сообщениям
Вы не можете скачивать файлы

▼ Вниз