ML
     
  Уважаемый Гость!
Вы можете поддержать проект и зарегистрироваться у наших партнеров - онлайн-стратегия MyLands. При регистрации в игре Вы получите код, который сможете активировать после регистрации на pirat.ca и получить 1000 дублонов.

Ваш код:
5af7de75d3db09b6a37bc8bab71b0e87ccde73d6
 
     

Тачки 2 / Cars 2 (Джон Лассетер, Брэд Льюис / John Lasseter, Brad Lewis) [2011 г., комедия, приключения, семейный, BDRip] (Dub)

Ответить на тему
 
Автор
Сообщение

Пост 04-Дек-2011 23:07

[Q] 

Sirota

Легенда

Тачки 2 / Cars 2 Год выпуска: 2011
Мировая премьера: 18 июня 2011
Российская премьера: 23 июня 2011, «WDSSPR»
Дата выхода DVD: 1 ноября 2011, «Уолт Дисней Компани СНГ»
Производство: США
Жанр: комедия, приключения, семейный
Продолжительность: 01:47:01
Перевод: профессиональный (полное дублирование)
Автор(ы) перевода: Дмитрий Харатьян, Сергей Кузнецов, Леонид Каневский, Жанна Фриске, Леонид Ярмольник
Режиссер: Джон Лассетер, Брэд Льюис / John Lasseter, Brad Lewis
В ролях: Оуэн Уилсон
Ларри Кейбл Гай
Майкл Кейн
Эмили Мортимер
Эдди Иззард
Джон Туртурро
Брент Мусбургер
Джо Мантенья
Томас Кречманн
Питер Джекобсон
Описание: Молния МакКуин и его друг Мэтр отправляются в международное путешествие — когда МакКуин получает шанс участвовать в соревнованиях для самых быстрых машин в мире, Мировом Гран-При. Этапы этих престижных гонок заведут друзей в Токио, на набережные Парижа, на побережье Италии, и на улицы туманного Лондона.
Доп. информация: сценарий Бен Квин, Джон Лассетер, Брэд Льюис,
продюсер Денис Рим
композитор Майкл Джаккино
художник Джей Шустер
монтаж Стефен Шаффер
бюджет $200 000 000
сборы в США $191 438 939
сборы в мире + $360 400 000 = $55
1 838 939
сборы в России $19 915 542

Локализованный видеоряд - надписи на русском языке
Сэмпл, IMDB, КиноПоиск
Источник/Качество: BDRip
Формат: AVI
Видео кодек: XviD
Аудио кодек: AC3
Видео: 720x304 (2.37:1), 23.976 fps, XviD build 64, 1556 kbps avg, 0.30 bit/pixel
Аудио: 48 kHz, AC3 Dolby Digital, 3/2 (L,C,R,l,r) + LFE ch, ~384 kbps
Субтитры: нет
General
Format : AVI
Format/Info : Audio Video Interleave
File size : 1.46 GiB
Duration : 1h 47mn
Overall bit rate : 1 950 Kbps
Writing application : VirtualDubMod 1.5.10.3 (build 2550/release)
Writing library : VirtualDubMod build 2550/release
Video #0
ID : 0
Format : MPEG-4 Visual
Format profile : [email protected]
Format settings, BVOP : Yes
Format settings, QPel : No
Format settings, GMC : No warppoints
Format settings, Matrix : Custom
Codec ID : XVID
Codec ID/Hint : XviD
Duration : 1h 47mn
Bit rate : 1 557 Kbps
Width : 720 pixels
Height : 304 pixels
Display aspect ratio : 2.35:1
Frame rate : 23.976 fps
Resolution : 24 bits
Colorimetry : 4:2:0
Scan type : Progressive
Bits/(Pixel*Frame) : 0.297
Stream size : 1.16 GiB (80%)
Writing library : XviD 64
Audio #1
ID : 1
Format : AC-3
Format/Info : Audio Coding 3
Codec ID : 2000
Duration : 1h 47mn
Bit rate mode : Constant
Bit rate : 384 Kbps
Channel(s) : 6 channels
Channel positions : Front: L C R, Surround: L R, LFE
Sampling rate : 48.0 KHz
Stream size : 294 MiB (20%)
Alignment : Split accross interleaves
Interleave, duration : 42 ms (1.00 video frame)
Interleave, preload duration : 500 ms
Download / Скачать

Хотите скачать бесплатно? Зарегистрируйтесь на сайте (ссылка на регистрацию). Pirat.ca - самый быстрый торрент трекер в рунете!

Как скачивать  ·   Что такое торрент  ·   Рейтинг и ограничения

Пост 05-Дек-2011 01:15 (спустя 2 часа 7 минут)

Топик был перенесен из форума Мультипликация в форум Новинки (HD|DVD|BD|TV|SAT|PDTV| - Rips)

zyyx
 

Duke1503

Штурман

33

Пост 28-Июн-2012 23:07 (спустя 6 месяцев 23 дня)

[Q] 

хахаха:"Локализованный видеоряд",хотя бы скриншот сделали бы!

_________________
Я-бывший kom1503
[Профиль]  [ЛС] 

CHARLI2236

1090

Пост 30-Окт-2012 13:36 (спустя 4 месяца 1 день)

[Q] 

благодарю

_________________
[Профиль]  [ЛС] 

ruwam

Морской Волк

Пост 09-Май-2013 12:26 (спустя 6 месяцев 9 дней)

[Q] 

спасибо
[Профиль]  [ЛС] 

Су-34

Гроза морей

10390

Пост 11-Май-2013 08:50 (спустя 1 день 20 часов)

[Q] 

Для детишек сойдет
[Профиль]  [ЛС] 

Alexe10

Гроза морей

36

Пост 23-Окт-2014 08:02 (спустя 1 год 5 месяцев)

[Q] 

Спасибо!!!
[Профиль]  [ЛС] 

urik

Морской Волк

Пост 05-Фев-2015 19:33 (спустя 3 месяца 13 дней)

[Q] 

Одобрямс!
[Профиль]  [ЛС] 

Strix

Флибустьер

Пост 15-Фев-2015 09:55 (спустя 9 дней)

[Q] 

Спасибо !COOL!
[Профиль]  [ЛС] 
Показать сообщения:    
Ответить на тему

Текущее время: Сегодня 14:10

Часовой пояс: GMT + 4



Вы не можете начинать темы
Вы не можете отвечать на сообщения
Вы не можете редактировать свои сообщения
Вы не можете удалять свои сообщения
Вы не можете голосовать в опросах
Вы не можете прикреплять файлы к сообщениям
Вы не можете скачивать файлы

▼ Вниз