ML
     
  Уважаемый Гость!
Вы можете поддержать проект и зарегистрироваться у наших партнеров - онлайн-стратегия MyLands. При регистрации в игре Вы получите код, который сможете активировать после регистрации на pirat.ca и получить 1000 дублонов.

Ваш код:
193c38d0130f05c24de871678ea3ac181461757d
 
     

Астробой / Astro Boy (Дэвид Бауэрс / David Bowers) [2009 г., фантастика, боевик, семейный, мультфильм, HDRip] Dub

Ответить на тему
 
Автор
Сообщение

Пост 23-Апр-2012 18:44

[Q] 

ara1205

Астробой / Astro Boy- -Год выпуска: 2009
Страна: США, Япония, Гонконг
Жанр: фантастика, боевик, семейный, мультфильм
Продолжительность: 01:33:48
Перевод: Профессиональный (полное дублирование)
Русские субтитры: нет--Режиссер: Дэвид Бауэрс / David Bowers--В ролях: Кристен Белл, Николас Кейдж, Сэмюэл Л. Джексон, Шарлиз Терон , Дональд Сазерленд--Описание: В космическом мегаполисе Метро живет гениальный ученый доктор Тенма. Оплакивая своего погибшего сына, он создает Астробоя,
мальчика-робота, наделенного самыми лучшими человеческими качествами и сверхъестественными способностями супер-героя.
Но каково же было разочарование Астробоя, когда он узнал, что он… не настоящий человек.
В это время Астробой попадает в поле зрения преступных военных кругов, которые хотят использовать силу маленького робота для захвата Земли…-- --Качество: HDRip
Формат: AVI
Видео кодек: XviD
Аудио кодек: MP3
Видео: 640x272 (2.35:1), 23.976 fps, XviD MPEG-4 ~886 kbps avg, 0.21 bit/pixel
Аудио: 48 kHz, MPEG Layer 3, 2 ch, ~192.00 kbps avg--
--
General
Complete name : C:\Users\Юличка\Documents\пиратка\Астробой\Astroboj.2009.D.HDRip.avi
Format : AVI
Format/Info : Audio Video Interleave
File size : 730 MiB
Duration : 1h 33mn
Overall bit rate : 1 088 Kbps
Writing application : VirtualDubMod 1.5.10.1 Рус от Stvens Inc.™ www.stvens.amillo.net (build 2366/release)
Writing library : VirtualDubMod build 2366/release
Video
ID : 0
Format : MPEG-4 Visual
Format profile : Advanced [email protected]
Format settings, BVOP : 1
Format settings, QPel : No
Format settings, GMC : No warppoints
Format settings, Matrix : Default (MPEG)
Muxing mode : Packed bitstream
Codec ID : XVID
Codec ID/Hint : XviD
Duration : 1h 33mn
Bit rate : 887 Kbps
Width : 640 pixels
Height : 272 pixels
Display aspect ratio : 2.35:1
Frame rate : 23.976 fps
Color space : YUV
Chroma subsampling : 4:2:0
Bit depth : 8 bits
Scan type : Progressive
Compression mode : Lossy
Bits/(Pixel*Frame) : 0.213
Stream size : 595 MiB (81%)
Writing library : XviD 1.2.1 (UTC 2008-12-04)
Audio
ID : 1
Format : MPEG Audio
Format version : Version 1
Format profile : Layer 3
Mode : Joint stereo
Codec ID : 55
Codec ID/Hint : MP3
Duration : 1h 33mn
Bit rate mode : Constant
Bit rate : 192 Kbps
Channel(s) : 2 channels
Sampling rate : 48.0 KHz
Compression mode : Lossy
Stream size : 129 MiB (18%)
Alignment : Aligned on interleaves
Interleave, duration : 42 ms (1.00 video frame)
Interleave, preload duration : 504 ms
--
Download / Скачать

Хотите скачать бесплатно? Зарегистрируйтесь на сайте (ссылка на регистрацию). Pirat.ca - самый быстрый торрент трекер в рунете!

Как скачивать  ·   Что такое торрент  ·   Рейтинг и ограничения

Пост 23-Апр-2012 18:51 (спустя 7 минут)

Топик был перенесен из форума Мультипликация в форум Зарубежные полнометражные мультфильмы

erchine
 

Olegarkh73

Корсар

240

Пост 21-Июл-2013 20:20 (спустя 1 год 2 месяца)

[Q] 

[Профиль]  [ЛС] 

stas-burn

Корсар

Пост 24-Дек-2013 12:32 (спустя 5 месяцев 2 дня)

[Q] 

Спасибо! !COOL!
[Профиль]  [ЛС] 
Показать сообщения:    
Ответить на тему

Текущее время: Сегодня 18:08

Часовой пояс: GMT + 4



Вы не можете начинать темы
Вы не можете отвечать на сообщения
Вы не можете редактировать свои сообщения
Вы не можете удалять свои сообщения
Вы не можете голосовать в опросах
Вы не можете прикреплять файлы к сообщениям
Вы не можете скачивать файлы

▼ Вниз