ML
     
  Уважаемый Гость!
Вы можете поддержать проект и зарегистрироваться у наших партнеров - онлайн-стратегия MyLands. При регистрации в игре Вы получите код, который сможете активировать после регистрации на pirat.ca и получить 1000 дублонов.

Ваш код:
6f9ab67d502902cc72a06c406977ddb589b7f39d
 
     

Балто / Balto (Саймон Уэллс/ Simon Wells) [1995, приключения, семейный, DVDRip] MVO

Ответить на тему
 
Автор
Сообщение

Пост 23-Апр-2012 19:36

[Q] 

ara1205

Балто / Balto -
Страна: США, Amblin Entertainment
Жанр: приключения, семейный
Продолжительность: 01:14:26
Год выпуска: 1995
Перевод: Профессиональный (многоголосый закадровый)
Русские субтитры: нет
-
Режиссёр: Саймон Уэллс/ Simon Wells
-
Роли озвучивали: Кевин Бэйкон, Бриджет Фонда, Фил Коллинз, Боб Хоскинс и другие.
-
Описание: Ослепительный, полный приключений, надежд и любви анимационный фильм о лайке, чья история стала примером для подражания, легендой. История Балто – наполовину хаски, наполовину волка – основана на подлинных фактах и стала символом героизма, преданности и выдержки, которой восхищается весь мир. Невозможно описать, сколько эмоций вложили аниматоры, музыканты, актеры и сценаристы в то чтобы передать, события, произошедшие на Аляске зимой 1925ого года и подарить нам этот новый мир мечты. Мир, в котором есть место подвигу, есть место любви, теплу…В отрезанном от всего внешнего мира городе Ном, эпидемия дифтерии охватила детей, а свирепая вьюга сделала непроходимыми все дороги. Лишь собачья упряжка может преодолеть шестьсот миль через ослепляющий арктический шторм и привезти спасительное лекарство.
Но собаки сбились с дороги где-то на замерзших просторах. Теперь только Балто может найти упряжку и спасти детей, а заодно стать героем и настоящей легендой!
-- -
В течение нескольких десятилетий посетители Центрального Парка Нью-Йорка могут восхищаться видом бронзовой статуи лайки, единственной такой статуей в своем роде. Это памятник Балто – лайке, которая стала символом гордости всего американского народа в середине 20х годов.
Балто родился в 1923 году в городке Ном(Nome), штат Аляска. Первые годы жизни Балто провел за перевозкой еды для города. Он считался довольно медленной собакой, не подходящей для более тяжелой работы. В начале 1925 года дифтерия, страшная болезнь, поражающая детей, разгорелась в Номе. Для оказания помощи детям была необходима вакцина с серой, запас которой иссяк во всех местных больницах. Связавшись по телеграфу со всеми близлежащими городами, выяснилось, что немного вакцины осталось в городе Анкораж (Anchorage), который находился за тысячу миль от Нома. Но как доставить вакцину в город? Ледяной шторм и бури не позволяли взлетать самолетам. Было принято решение перевести вакцину поездом в город Ненана (Nenana), но дальше города её доставить не могли из-за отсутствия железнодорожных путей. Однако Ненана располагалась на расстоянии, почти в тысячу километров, сплошь ледяной пустыни. Жители Нома предложили выход: снарядить собачьи упряжки и положиться на скорость и силу собачьих лап, и на мастерство ведущих упряжки. Снарядив команды, упряжки отправились навстречу ледяному ветру и снежным бурям. Многие сдались в процессе перехода. Это не удивительно, ведь было почти невозможно найти дорогу в снежном буране. Первым прибыл в Ненану Гунар Кассен (Gunnar Kassen), чью упряжку лаек вел… Балто. Однако на обратном пути Гунар был парализован обморожением, и не мог продолжать руководить командой. И вот, когда Гунар Кассон потерял всякую надежду спасти детей Нома, Балто, который помнил дорогу, начал сам вести упряжку. Он повел команду обратно в город, не сбавляя скорости до самого последнего момента – благополучного возвращения в Ном. По прибытию собаки были так измотаны, что у них не осталось сил даже на лай, но необходимые вакцины были доставлены больным. Последние годы своей жизни Балто провел в зоопарке Кливленда и умер в 1933 году…
И по сей день в школах Аляски проходят историю Балто, его поступок не умер, он навечно останется символом доблести, чести, достоинства и несломленной воли к победе…
-
"Собака такой путь одна пройти не сможет… Но может быть это сделает волк!"-Качество: DVDRip (DVD9)
Формат: AVI
Видео: XviD,720x400 (16:9), 25 fps, 2395 kbps
Аудио 1: 48 kHz, AC3 Dolby Digital, 2/0 (L,R) ch, ~192 kbps Mvo
Аудио 2: 48 kHz, AC3 Dolby Digital, 2/0 (L,R) ch, ~192 kbps /original/-
General
Complete name : C:\Users\Юличка\Documents\пиратка\Балто\Balto(Rus-Eng) .avi
Format : AVI
Format/Info : Audio Video Interleave
File size : 1.45 GiB
Duration : 1h 14mn
Overall bit rate : 2 793 Kbps
Writing application : VirtualDubMod 1.5.10.2 (build 2540/release)
Writing library : VirtualDubMod build 2540/release
Video
ID : 0
Format : MPEG-4 Visual
Format profile : Advanced [email protected]
Format settings, BVOP : 3
Format settings, QPel : No
Format settings, GMC : No warppoints
Format settings, Matrix : Default (H.263)
Codec ID : XVID
Codec ID/Hint : XviD
Duration : 1h 14mn
Bit rate : 2 395 Kbps
Width : 720 pixels
Height : 400 pixels
Display aspect ratio : 16:9
Frame rate : 25.000 fps
Color space : YUV
Chroma subsampling : 4:2:0
Bit depth : 8 bits
Scan type : Progressive
Compression mode : Lossy
Bits/(Pixel*Frame) : 0.333
Stream size : 1.25 GiB (86%)
Writing library : XviD 1.2.0.dev47 (UTC 2006-11-01)
Audio #1
ID : 1
Format : AC-3
Format/Info : Audio Coding 3
Mode extension : CM (complete main)
Codec ID : 2000
Duration : 1h 14mn
Bit rate mode : Constant
Bit rate : 192 Kbps
Channel(s) : 2 channels
Channel positions : Front: L R
Sampling rate : 48.0 KHz
Bit depth : 16 bits
Compression mode : Lossy
Stream size : 102 MiB (7%)
Alignment : Split accross interleaves
Interleave, duration : 40 ms (1.00 video frame)
Interleave, preload duration : 500 ms
Audio #2
ID : 2
Format : AC-3
Format/Info : Audio Coding 3
Mode extension : CM (complete main)
Codec ID : 2000
Duration : 1h 14mn
Bit rate mode : Constant
Bit rate : 192 Kbps
Channel(s) : 2 channels
Channel positions : Front: L R
Sampling rate : 48.0 KHz
Bit depth : 16 bits
Compression mode : Lossy
Stream size : 102 MiB (7%)
Alignment : Split accross interleaves
Interleave, duration : 40 ms (1.00 video frame)
Interleave, preload duration : 500 ms
-
-
Download / Скачать

Хотите скачать бесплатно? Зарегистрируйтесь на сайте (ссылка на регистрацию). Pirat.ca - самый быстрый торрент трекер в рунете!

Как скачивать  ·   Что такое торрент  ·   Рейтинг и ограничения

Пост 23-Апр-2012 19:48 (спустя 12 минут)

Топик был перенесен из форума Мультипликация в форум Зарубежные полнометражные мультфильмы

erchine
 

agnifire

Корсар

Пост 28-Апр-2012 17:27 (спустя 4 дня)

[Q] 

[Профиль]  [ЛС] 

balex

Морской Волк

Пост 28-Апр-2012 18:20 (спустя 52 минуты)

[Q] 

Спасибо)))))
[Профиль]  [ЛС] 

buba-79

Флибустьер

Пост 18-Авг-2012 12:57 (спустя 3 месяца 19 дней)

[Q] 

[Профиль]  [ЛС] 

Анита

Лоцман

Пост 20-Авг-2012 16:35 (спустя 2 дня 3 часа)

[Q] 

[Профиль]  [ЛС] 

Frai89

Флибустьер

42

Пост 01-Янв-2013 19:48 (спустя 4 месяца 12 дней)

[Q] 

спасибо!
[Профиль]  [ЛС] 
Показать сообщения:    
Ответить на тему

Текущее время: Сегодня 16:33

Часовой пояс: GMT + 4



Вы не можете начинать темы
Вы не можете отвечать на сообщения
Вы не можете редактировать свои сообщения
Вы не можете удалять свои сообщения
Вы не можете голосовать в опросах
Вы не можете прикреплять файлы к сообщениям
Вы не можете скачивать файлы

▼ Вниз