ML
     
  Уважаемый Гость!
Вы можете поддержать проект и зарегистрироваться у наших партнеров - онлайн-стратегия MyLands. При регистрации в игре Вы получите код, который сможете активировать после регистрации на pirat.ca и получить 1000 дублонов.

Ваш код:
a6d1ef7ff63e237add5a4c8b21d8aa937c5e9b4b
 
     

Делай ноги 2 / Happy Feet Two (Джордж Миллер / George Miller) [2011 г., мультфильм, комедия, семейный, музыка, HDRip] Dub [Лицензия]

Ответить на тему
 
Автор
Сообщение

Пост 25-Апр-2012 15:21

[Q] 

gEmOkPaT

Делай ноги 2 / Happy Feet Two «Раз, два, три... Антарктида, жги!» Информация о фильме
Год выпуска: 2011
Мировая премьера: 17 ноября 2011
Российская премьера: 1 декабря 2011, «Каро-Премьер»
Дата выхода DVD: 5 апреля 2012, «CP-Digital»
Дата выхода Blu-Ray: 5 апреля 2012, «CP-Digital»
Производство: Австралия, Warner Bros. Pictures
Жанр: мультфильм, комедия, семейный, музыка
Продолжительность: 01:39:30
Перевод: Дублированный [Лицензия]
Субтитры: отсутствуют
Режиссер: Джордж Миллер / George Miller
В ролях
Элайджа Вуд, Робин Уильямс, Хэнк Азария, Пинк, Брэд Питт, Мэтт Дэймон, София Вергара, Карлос Алазраки, Ломбардо Бойяр, Джефф Гарсиа и др.

Описание
Неутомимый пингвин Мамбл, некогда покоривший своим блестящим танцорским талантом целое племя императорских пингвинов, стал отцом. Его малыш — Эрик, в точности такой же свободолюбивый и независимый, как и папа, но в своих амбициях и авантюрах, несмотря на свой юный возраст, уже способен дать хорошую фору отцу и всем окружающим.

Источник/Качество: HDRip
Формат: AVI
Видео кодек: XviD
Аудио кодек: AC3
Видео: 720x304 (2.37:1), 23.976 fps, XviD build 63 ~2 031 Kbps kbps avg, 0.387 bit/pixel
Аудио: Russian / English 48 kHz, AC3 Dolby Digital, 3/2 (L,C,R,l,r) + LFE ch, ~384 kbps
General
Complete name : C:\Users\U\Downloads\Делай ноги 2. HDRip.2.05.avi.!ut
Format : AVI
Format/Info : Audio Video Interleave
File size : 2.03 GiB
Duration : 1h 39mn
Overall bit rate : 2 925 Kbps
Writing application : VirtualDubMod 1.5.10.2 (build 2540/release)
Writing library : VirtualDubMod build 2540/release
Video
ID : 0
Format : MPEG-4 Visual
Format profile : Advanced [email protected]
Format settings, BVOP : 2
Format settings, QPel : No
Format settings, GMC : No warppoints
Format settings, Matrix : Default (H.263)
Codec ID : XVID
Codec ID/Hint : XviD
Duration : 1h 39mn
Bit rate : 2 031 Kbps
Width : 720 pixels
Height : 304 pixels
Display aspect ratio : 2.35:1
Frame rate : 23.976 fps
Color space : YUV
Chroma subsampling : 4:2:0
Bit depth : 8 bits
Scan type : Progressive
Compression mode : Lossy
Bits/(Pixel*Frame) : 0.387
Stream size : 1.41 GiB (69%)
Writing library : XviD 63
Audio #1
ID : 1
Format : AC-3
Format/Info : Audio Coding 3
Mode extension : CM (complete main)
Codec ID : 2000
Duration : 1h 39mn
Bit rate mode : Constant
Bit rate : 384 Kbps
Channel(s) : 6 channels
Channel positions : Front: L C R, Side: L R, LFE
Sampling rate : 48.0 KHz
Bit depth : 16 bits
Compression mode : Lossy
Stream size : 273 MiB (13%)
Alignment : Split accross interleaves
Audio #2
ID : 2
Format : AC-3
Format/Info : Audio Coding 3
Mode extension : CM (complete main)
Codec ID : 2000
Duration : 1h 39mn
Bit rate mode : Constant
Bit rate : 384 Kbps
Channel(s) : 6 channels
Channel positions : Front: L C R, Side: L R, LFE
Sampling rate : 48.0 KHz
Bit depth : 16 bits
Compression mode : Lossy
Stream size : 273 MiB (13%)
Alignment : Split accross interleaves
Download / Скачать

Хотите скачать бесплатно? Зарегистрируйтесь на сайте (ссылка на регистрацию). Pirat.ca - самый быстрый торрент трекер в рунете!

Как скачивать  ·   Что такое торрент  ·   Рейтинг и ограничения

Пост 25-Апр-2012 16:01 (спустя 39 минут)

Топик был перенесен из форума Подвал (для восстановления раздач) в форум Зарубежные полнометражные мультфильмы

erchine
 

CHARLI2236

1089

Пост 17-Июл-2013 22:38 (спустя 1 год 2 месяца)

[Q] 

16

_________________
[Профиль]  [ЛС] 
Показать сообщения:    
Ответить на тему

Текущее время: Сегодня 13:31

Часовой пояс: GMT + 4



Вы не можете начинать темы
Вы не можете отвечать на сообщения
Вы не можете редактировать свои сообщения
Вы не можете удалять свои сообщения
Вы не можете голосовать в опросах
Вы не можете прикреплять файлы к сообщениям
Вы не можете скачивать файлы

▼ Вниз