ML
     
  Уважаемый Гость!
Вы можете поддержать проект и зарегистрироваться у наших партнеров - онлайн-стратегия MyLands. При регистрации в игре Вы получите код, который сможете активировать после регистрации на pirat.ca и получить 1000 дублонов.

Ваш код:
73640f24f8a0f579e128ea7346fd2db2b1009143
 
     

Приключения Тинтина: Тайна Единорога / The Adventures of Tintin (Стивен Спилберг / Steven Spielberg) [2011 г., мультфильм, боевик, детектив, приключения, семейный, HDRip] Dub (Лицензия)

Ответить на тему
 
Автор
Сообщение

Пост 26-Апр-2012 00:29

[Q] 

zyyx

--Приключения Тинтина: Тайна Единорога / The Adventures of Tintin
«This year, discover how far adventure will take you.»
-- Год выпуска: 2011
Мировая премьера: 23 октября 2011
Российская премьера: 3 ноября 2011, «WDSSPR»
Дата выхода DVD: 27 марта 2012, «Columbia/Sony»
Дата выхода Blu-Ray: 27 марта 2012, «Columbia/Sony»
Производство: США, Новая Зеландия
Жанр: мультфильм, боевик, детектив, приключения, семейный
Продолжительность: 01:46:51
Перевод: Профессиональный (полное дублирование) [Лицензия]
Субтитры: отсутствуют
Режиссер: Стивен Спилберг / Steven Spielberg
В ролях
Джейми Белл, Энди Серкис, Дэниэл Крэйг, Саймон Пегг, Кэри Элвис, Тоби Джонс, Ник Фрост, Себастьян Роше, Маккензи Крук, Тони Карран
Описание
Главный герой — молодой газетный репортёр Тинтин. Благодаря своей профессии он путешествует по всему миру и становится участником увлекательных приключений.
Источник/Качество: HDRip | Сэмпл
Формат: AVI
Видео кодек: XviD
Аудио кодек: AC3
Видео: 720x304 (2.37:1), 23.976 fps, XviD build 50, 2301 kbps avg, 0.44 bit/pixel
Аудио: 48 kHz, AC3 Dolby Digital, 3/2 (L,C,R,l,r) + LFE ch, 448.00 kbps avg
General
Complete name : H:\Новая папка\Tintin.2011.D.HDRip.2100mb.avi
Format : AVI
Format/Info : Audio Video Interleave
Format profile : OpenDML
File size : 2.06 GiB
Duration : 1h 46mn
Overall bit rate : 2 757 Kbps
Writing application : VirtualDubMod 1.5.10.2 (build 2540/release)
Writing library : VirtualDubMod build 2540/release
Video
ID : 0
Format : MPEG-4 Visual
Format profile : Advanced [email protected]
Format settings, BVOP : 1
Format settings, QPel : No
Format settings, GMC : No warppoints
Format settings, Matrix : Default (MPEG)
Codec ID : XVID
Codec ID/Hint : XviD
Duration : 1h 46mn
Bit rate : 2 296 Kbps
Width : 720 pixels
Height : 304 pixels
Display aspect ratio : 2.35:1
Frame rate : 23.976 fps
Color space : YUV
Chroma subsampling : 4:2:0
Bit depth : 8 bits
Scan type : Progressive
Compression mode : Lossy
Bits/(Pixel*Frame) : 0.438
Stream size : 1.71 GiB (83%)
Writing library : XviD 1.2.1 (UTC 2008-12-04)
Audio
ID : 1
Format : AC-3
Format/Info : Audio Coding 3
Mode extension : CM (complete main)
Codec ID : 2000
Duration : 1h 46mn
Bit rate mode : Constant
Bit rate : 448 Kbps
Channel(s) : 6 channels
Channel positions : Front: L C R, Side: L R, LFE
Sampling rate : 48.0 KHz
Bit depth : 16 bits
Compression mode : Lossy
Stream size : 342 MiB (16%)
Alignment : Split accross interleaves
Interleave, duration : 42 ms (1.00 video frame)
Interleave, preload duration : 500 ms
Download / Скачать

Хотите скачать бесплатно? Зарегистрируйтесь на сайте (ссылка на регистрацию). Pirat.ca - самый быстрый торрент трекер в рунете!

Как скачивать  ·   Что такое торрент  ·   Рейтинг и ограничения

Пост 26-Апр-2012 07:42 (спустя 7 часов)

Топик был перенесен из форума Мультипликация в форум Зарубежные полнометражные мультфильмы

erchine
 

agnifire

Корсар

Пост 28-Апр-2012 17:53 (спустя 2 дня 17 часов)

[Q] 

[Профиль]  [ЛС] 

Krukov_Aleksey

Корсар

Пост 12-Май-2012 22:34 (спустя 14 дней)

[Q] 

смешно
[Профиль]  [ЛС] 

belomor

Штурман

Пост 14-Июн-2012 20:13 (спустя 1 месяц 1 день)

[Q] 

[Профиль]  [ЛС] 

Alexe10

Гроза морей

36

Пост 14-Дек-2013 11:24 (спустя 1 год 5 месяцев)

[Q] 

Тинтину зачет!
!COOL!
[Профиль]  [ЛС] 
Показать сообщения:    
Ответить на тему

Текущее время: Сегодня 22:38

Часовой пояс: GMT + 4



Вы не можете начинать темы
Вы не можете отвечать на сообщения
Вы не можете редактировать свои сообщения
Вы не можете удалять свои сообщения
Вы не можете голосовать в опросах
Вы не можете прикреплять файлы к сообщениям
Вы не можете скачивать файлы

▼ Вниз