ML
     
  Уважаемый Гость!
Вы можете поддержать проект и зарегистрироваться у наших партнеров - онлайн-стратегия MyLands. При регистрации в игре Вы получите код, который сможете активировать после регистрации на pirat.ca и получить 1000 дублонов.

Ваш код:
11f49771fdf057c9d51610e4a0925c3b46ddb655
 
     

Балто 2: В поисках волка / Balto: Wolf Quest (Фил Уайнстайн / Phil Weinstein) [2002, Cемейный, мультфильм, DVDRip] MVO

Ответить на тему
 
Автор
Сообщение

Пост 29-Апр-2012 10:18

[Q] 

ara1205

Балто 2: В поисках волка / Balto: Wolf Quest- Страна: США
Жанр: Cемейный, мультфильм
Продолжительность: 01:15:26
Год выпуска: 2002
Перевод: Профессиональный (многоголосый закадровый)
Субтитры: Английские - отдельно-Режиссёр: Фил Уайнстайн / Phil Weinstein- -Описание: Настоящий герой возвращается в захватывающем новом приключении, таком же большом, как мир, который называется СЕВЕР! Этот наполненный событиями, полнометражный сиквел оригинального Балто - блестяще анимированное приключение, которое можно смотреть и пересматривать не один раз всей семьей. Наполовину лайка, наполовину волк Балто знает, что такое зов природы. Поэтому, когда его маленькая дочь Алеу исследует свою волчью родословную, Балто понимает, она должна следовать велению своего сердца. Тогда в глубине пустынной дикой Аляски Алеу будет искать свой собственный путь, борясь с вожаком стаи диких волков и с помощью своего отважного отца исполнить героическое-Качество: DVDRip
Формат: AVI
Видео: 640x480 (1.33:1), 23.976fps, XviD build 50, 1 928 kbps avg, 0.262 bit/pixel
Аудио: Rus Dolby AC3 48000Hz 6ch 384kbps
Аудио 2: Eng Dolby AC3 48000Hz 6ch 448kbps
Субтитры: Английские (Srt)
General
Complete name : C:\Users\Юличка\Documents\пиратка\Балто 2 В поисках волка\Bolto 2\Balto 2.avi
Format : AVI
Format/Info : Audio Video Interleave
File size : 1.46 GiB
Duration : 1h 15mn
Overall bit rate : 2 774 Kbps
Writing application : VirtualDubMod 1.5.10.2 (build 2540/release)
Writing library : VirtualDubMod build 2540/release
Video
ID : 0
Format : MPEG-4 Visual
Format profile : Advanced [email protected]
Format settings, BVOP : 3
Format settings, QPel : No
Format settings, GMC : No warppoints
Format settings, Matrix : Default (H.263)
Codec ID : XVID
Codec ID/Hint : XviD
Duration : 1h 15mn
Bit rate : 1 928 Kbps
Width : 640 pixels
Height : 480 pixels
Display aspect ratio : 4:3
Frame rate : 23.976 fps
Color space : YUV
Chroma subsampling : 4:2:0
Bit depth : 8 bits
Scan type : Progressive
Compression mode : Lossy
Bits/(Pixel*Frame) : 0.262
Stream size : 1.02 GiB (70%)
Writing library : XviD 1.2.1 (UTC 2008-12-04)
Audio #1
ID : 1
Format : AC-3
Format/Info : Audio Coding 3
Mode extension : CM (complete main)
Codec ID : 2000
Duration : 1h 15mn
Bit rate mode : Constant
Bit rate : 384 Kbps
Channel(s) : 6 channels
Channel positions : Front: L C R, Side: L R, LFE
Sampling rate : 48.0 KHz
Bit depth : 16 bits
Compression mode : Lossy
Stream size : 207 MiB (14%)
Alignment : Split accross interleaves
Interleave, duration : 42 ms (1.00 video frame)
Interleave, preload duration : 500 ms
Audio #2
ID : 2
Format : AC-3
Format/Info : Audio Coding 3
Mode extension : CM (complete main)
Codec ID : 2000
Duration : 1h 15mn
Bit rate mode : Constant
Bit rate : 448 Kbps
Channel(s) : 6 channels
Channel positions : Front: L C R, Side: L R, LFE
Sampling rate : 48.0 KHz
Bit depth : 16 bits
Compression mode : Lossy
Stream size : 242 MiB (16%)
Alignment : Split accross interleaves
Interleave, duration : 42 ms (1.00 video frame)
Interleave, preload duration : 500 ms
Download / Скачать

Хотите скачать бесплатно? Зарегистрируйтесь на сайте (ссылка на регистрацию). Pirat.ca - самый быстрый торрент трекер в рунете!

Как скачивать  ·   Что такое торрент  ·   Рейтинг и ограничения

Пост 29-Апр-2012 10:32 (спустя 14 минут)

Топик был перенесен из форума Мультипликация в форум Зарубежные полнометражные мультфильмы

zyyx
 

CHARLI2236

1097

Пост 19-Июн-2012 14:37 (спустя 1 месяц 20 дней)

[Q] 

благодарю

_________________
[Профиль]  [ЛС] 

buba-79

Флибустьер

Пост 18-Авг-2012 12:56 (спустя 1 месяц 28 дней)

[Q] 

[Профиль]  [ЛС] 

Анита

Лоцман

Пост 20-Авг-2012 16:34 (спустя 2 дня 3 часа)

[Q] 

[Профиль]  [ЛС] 
Показать сообщения:    
Ответить на тему

Текущее время: Сегодня 03:13

Часовой пояс: GMT + 4



Вы не можете начинать темы
Вы не можете отвечать на сообщения
Вы не можете редактировать свои сообщения
Вы не можете удалять свои сообщения
Вы не можете голосовать в опросах
Вы не можете прикреплять файлы к сообщениям
Вы не можете скачивать файлы

▼ Вниз