ML
     
  Уважаемый Гость!
Вы можете поддержать проект и зарегистрироваться у наших партнеров - онлайн-стратегия MyLands. При регистрации в игре Вы получите код, который сможете активировать после регистрации на pirat.ca и получить 1000 дублонов.

Ваш код:
db0e0ad91548759ffeb9bb88bed405e1a4b3c165
 
     

Тор: Легенда викингов / Legends of Valhalla: Thor (Оускар Йоунассон, Тоби Генкель, Гуннар Карлссон / Ouskar Younasson, Toby Henkel, Gunnar Karlsson) [2011 г., мультфильм, комедия, приключения, семейный, DVDRip] Dub (Лицензия)

Страницы :  1, 2  След.

Ответить на тему
 
Автор
Сообщение

Пост 01-Май-2012 11:47

[Q] 

Moln1a

Корсар

Тор: Легенда викингов / Legends of Valhalla: Thor
Год выпуска: 2011
Мировая премьера: 14 октября 2011
Российская премьера: 22 марта 2012
Дата выхода DVD: 26 апреля 2012
Производство: Германия, Исландия, Ирландия
Жанр: мультфильм, комедия, приключения, семейный
Продолжительность: 01:19:36
Перевод: Профессиональный (полное дублирование) [Лицензия]
Субтитры: отсутствуют
Режиссер: Оускар Йоунассон, Тоби Генкель, Гуннар Карлссон / Ouskar Younasson, Toby Henkel, Gunnar Karlsson
В ролях
Джастин Грегг, Пол Тайлак, Николя Кохлан, Лиз Ллойд, Алан Стэнфорд, Эммет Скэнлэн, Дж. Дрю Лукас, Мэри Мюррэй, Леса Турман, Гари Хецлер
Описание
Самоуверенный подросток, в арсенале которого находятся магическое оружие присоединяется к борьбе против злой королевы и ее армии гигантов
Сэмпл , КиноПоиск
Источник/Качество: DVDRip
Формат: AVI
Видео кодек: XviD
Аудио кодек: AC3
Видео: 720x304 (2.37:1), 25 fps, XviD build 50 ~1996 kbps avg, 0.36 bit/pixel
Аудио: 48 kHz, AC3 Dolby Digital, 3/2 (L,C,R,l,r) + LFE ch, ~448.00 kbps avg
Формат : AVI
Формат/Информация : Audio Video Interleave
Размер файла : 1,36 Гбайт
Продолжительность : 1 ч. 19 м.
Общий поток : 2455 Кбит/сек
Название фильма : Tor.legenda.vikingov.2011.D.DVDRip
Программа кодирования : VirtualDubMod 1.5.10.3 | www.virtualdub-fr.org || (build 2550/release)
Видео
Идентификатор : 0
Формат : MPEG-4 Visual
Профиль формата : Advanced [email protected]
Параметр BVOP формата : 1
Параметр QPel формата : Нет
Параметр GMC формата : Без точки перехода
Параметр матрицы формата : Выборочная
Идентификатор кодека : XVID
Идентификатор кодека/Подсказка : XviD
Продолжительность : 1 ч. 19 м.
Битрейт : 1997 Кбит/сек
Ширина : 720 пикс.
Высота : 304 пикс.
Соотношение сторон : 2,37:1
Частота кадров : 25,000 кадр/сек
Цветовое пространство : YUV
Подвыборка цветности : 4:2:0
Битовая глубина : 8 бит
Тип развёртки : Прогрессивная
Метод сжатия : С потерями
Бит/(Пиксели*Кадры) : 0.365
Размер потока : 1,11 Гбайт (81%)
Библиотека кодирования : XviD 1.2.1 (UTC 2008-12-04)
Аудио
Идентификатор : 1
Формат : AC-3
Формат/Информация : Audio Coding 3
Расширение режима : CM (complete main)
Идентификатор кодека : 2000
Продолжительность : 1 ч. 19 м.
Вид битрейта : Постоянный
Битрейт : 448 Кбит/сек
Каналы : 6 каналов
Расположение каналов : Front: L C R, Side: L R, LFE
Частота : 48,0 КГц
Битовая глубина : 16 бит
Метод сжатия : С потерями
Размер потока : 255 Мбайт (18%)
Выравнивание : Разделение по промежуткам
Продолжительность промежутка : 40 мс. (1,00 видеокадр)
Время предзагрузки промежутка : 500 ms
Download / Скачать

Хотите скачать бесплатно? Зарегистрируйтесь на сайте (ссылка на регистрацию). Pirat.ca - самый быстрый торрент трекер в рунете!

Как скачивать  ·   Что такое торрент  ·   Рейтинг и ограничения

Пост 01-Май-2012 12:46 (спустя 58 минут)

Топик был перенесен из форума Мультипликация в форум Новинки (HD|DVD|BD|TV|SAT|PDTV| - Rips)

erchine
 

ksg111ban

Гроза морей

Пост 01-Май-2012 13:25 (спустя 1 час 37 минут)

[Q] 


_________________
[Профиль]  [ЛС] 

dimonpa

Гроза морей

Пост 01-Май-2012 14:04 (спустя 38 минут)

[Q] 

[Профиль]  [ЛС] 

EvilPuzatik

Корсар

Пост 01-Май-2012 14:44 (спустя 39 минут)

[Q] 


_________________
[Профиль]  [ЛС] 

nibl72

Шкипер

Пост 01-Май-2012 15:33 (спустя 49 минут)

[Q] 


_________________
anime36 cm
[Профиль]  [ЛС] 

polozm

Легенда

Пост 01-Май-2012 16:40 (спустя 1 час 7 минут)

[Q] 

Спасибо за мульт

_________________
mac mini -2.0 GHz Intel Core i7/ 8 GB DDR3. /Intel HD 3000(512mb)OS X 10.9 Mavericks
[Профиль]  [ЛС] 

maksimbond

Корсар

2

Пост 01-Май-2012 17:48 (спустя 1 час 7 минут)

[Q] 

по десятибальной шкале ставлю твердую 2,5!!!
[Профиль]  [ЛС] 

Valek3275

Морской Волк

Пост 01-Май-2012 18:04 (спустя 15 минут)

[Q] 

Щас заценим...
[Профиль]  [ЛС] 

lidi

Шкипер

Пост 01-Май-2012 19:23 (спустя 1 час 19 минут)

[Q] 

[Профиль]  [ЛС] 

zpSaid

123

Пост 01-Май-2012 19:28 (спустя 5 минут)

[Q] 

Спасибо!

_________________
Джавдет трус! Абдула воин!
[Профиль]  [ЛС] 

sergLyghin

Корсар

162

Пост 01-Май-2012 20:01 (спустя 32 минуты)

[Q] 

Спасибо
[Профиль]  [ЛС] 

Semen77

Морской Волк

Пост 01-Май-2012 20:43 (спустя 42 минуты)

[Q] 

cкачаю в месте с киндером посмотрим. да и спасибо.
[Профиль]  [ЛС] 

A.Net

Корсар

Пост 01-Май-2012 20:53 (спустя 9 минут)

[Q] 

Спасибо
[Профиль]  [ЛС] 

maxiknik40

Корсар

Пост 01-Май-2012 21:14 (спустя 20 минут)

[Q] 

[Профиль]  [ЛС] 

shteker

Морской Волк

Пост 01-Май-2012 21:33 (спустя 19 минут)

[Q] 

[Профиль]  [ЛС] 

OlegSh

Морской Волк

Пост 02-Май-2012 10:02 (спустя 12 часов)

[Q] 

надо смотреть
[Профиль]  [ЛС] 

Jek@

Легенда

Пост 02-Май-2012 13:29 (спустя 3 часа)

[Q] 

[Профиль]  [ЛС] 

Alexe10

Гроза морей

36

Пост 03-Май-2012 06:31 (спустя 17 часов)

[Q] 

[Профиль]  [ЛС] 

Aleks44

Гроза морей

Пост 03-Май-2012 13:00 (спустя 6 часов)

[Q] 

Нормальный детский мультик смешной и смотрится легко посмотрел с ребенком и отдохнул
[Профиль]  [ЛС] 

Voland57

Корсар

Пост 03-Май-2012 18:53 (спустя 5 часов)

[Q] 

[Профиль]  [ЛС] 

tomatto

Морской Волк

Пост 06-Май-2012 18:12 (спустя 2 дня 23 часа)

[Q] 

[Профиль]  [ЛС] 

maxiknik40

Корсар

Пост 14-Ноя-2012 22:19 (спустя 6 месяцев 8 дней)

[Q] 

Спасибо
[Профиль]  [ЛС] 

kfrjcn70

Штурман

Пост 29-Ноя-2012 21:27 (спустя 14 дней)

[Q] 

[Профиль]  [ЛС] 

TOCHiLko

Шкипер

Пост 22-Фев-2013 00:26 (спустя 2 месяца 22 дня)

[Q] 

Прикольный мульт. Посмотреть стоит
[Профиль]  [ЛС] 

butik

Шкипер

Пост 28-Фев-2013 13:40 (спустя 6 дней)

[Q] 

[Профиль]  [ЛС] 

Вут

Морской Волк

72

Пост 12-Авг-2013 09:24 (спустя 5 месяцев 11 дней)

[Q] 

Спасибо, посмотрю с мелкими! Автору респект!!!
[Профиль]  [ЛС] 

king250980

Лоцман

Пост 07-Сен-2013 21:02 (спустя 26 дней)

[Q] 

Спасибо!!!
заценим
[Профиль]  [ЛС] 

MOPRK

Флибустьер

Пост 21-Сен-2013 17:32 (спустя 13 дней)

[Q] 

Супер! Раздающему респект! 555
[Профиль]  [ЛС] 

Dejavu_Dmitry

Морской Волк

Пост 09-Фев-2014 19:00 (спустя 4 месяца 18 дней)

[Q] 

Заценим. Спасибо автору.
[Профиль]  [ЛС] 
Показать сообщения:    
Ответить на тему

Текущее время: Сегодня 08:08

Часовой пояс: GMT + 4



Вы не можете начинать темы
Вы не можете отвечать на сообщения
Вы не можете редактировать свои сообщения
Вы не можете удалять свои сообщения
Вы не можете голосовать в опросах
Вы не можете прикреплять файлы к сообщениям
Вы не можете скачивать файлы

▼ Вниз