ML
     
  Уважаемый Гость!
Вы можете поддержать проект и зарегистрироваться у наших партнеров - онлайн-стратегия MyLands. При регистрации в игре Вы получите код, который сможете активировать после регистрации на pirat.ca и получить 1000 дублонов.

Ваш код:
9cfe162481db953a6549f32179d7b3900b8b8643
 
     

Смерть супергероя / Death of a Superhero (Йен Фитцгиббон / Ian Fitzgibbon) [2011, Мультфильм, драма, DVDRip] MVO [лицензия]

Ответить на тему
 
Автор
Сообщение

Пост 05-Май-2012 09:31

[Q] 

ara1205

Смерть супергероя / Death of a Superhero- Страна: Германия
Жанр: Мультфильм, драма
Год выпуска: 2011
Премьера в мире: 10 сентября 2011
Премьера в России: 5 апреля 2012
Дата выхода DVD: 2 мая 2012
Продолжительность: 01:32:52
Перевод: Профессиональный (многоголосый) [лицензия]
Cубтитры: Нет-Режиссер: Йен Фитцгиббон / Ian Fitzgibbon-В ролях: Энди Серкис, Томас Броди Сэнгстер, Майкл МакЭлхаттон, Эшлин Лофтус, Шарон Хорган, Нед Деннехи, Джейн Бреннан, Мелла Карон, Ольга Верли, Эмма Элиза Риган-Описание: Дональд Кларк — самый обыкновенный тинейджер. Он любит компьютерные игры, громкую музыку и комиксы. И еще Дональд уверен, что не доживет до совершеннолетия. То есть у него осталось совсем немного времени, чтобы успеть попробовать на вкус массу важных вещей: напиться с друзьями, выкурить косяк, лишиться девственности и — поближе познакомиться с самим собой. В фантазиях Дональд видит себя бессмертным супергероем, который противостоит отвратительному суперзлодею с большим шприцем, а роковая любовь супергероя поет на сцене ночного клуба…- Сэмпл-Качество видео: DVDRip
Формат видео: AVI
Видео кодек: XviD
Аудио кодек: AC3
Видео: 720x384 (1.88:1), 25 fps, XviD build 50 ~1853 kbps avg, 0.27 bit/pixel
Аудио: 48 kHz, AC3 Dolby Digital, 6 ch, ~384.00 kbps avg-
General
Complete name : C:\Users\Юличка\Pictures\Новинки\Смерть супергероя\Смерть супергероя.2011.DVDRip.avi
Format : AVI
Format/Info : Audio Video Interleave
File size : 1.46 GiB
Duration : 1h 32mn
Overall bit rate : 2 247 Kbps
Writing application : VirtualDubMod 1.5.10.3 | www.virtualdub-fr.org || (build 2550/release)
Writing library : VirtualDubMod build 2550/release
Video
ID : 0
Format : MPEG-4 Visual
Format profile : Advanced [email protected]
Format settings, BVOP : 2
Format settings, QPel : No
Format settings, GMC : No warppoints
Format settings, Matrix : Custom
Codec ID : XVID
Codec ID/Hint : XviD
Duration : 1h 32mn
Bit rate : 1 854 Kbps
Width : 720 pixels
Height : 384 pixels
Display aspect ratio : 1.875
Frame rate : 25.000 fps
Color space : YUV
Chroma subsampling : 4:2:0
Bit depth : 8 bits
Scan type : Progressive
Compression mode : Lossy
Bits/(Pixel*Frame) : 0.268
Stream size : 1.20 GiB (82%)
Writing library : XviD 1.2.1 (UTC 2008-12-04)
Audio
ID : 1
Format : AC-3
Format/Info : Audio Coding 3
Mode extension : CM (complete main)
Codec ID : 2000
Duration : 1h 32mn
Bit rate mode : Constant
Bit rate : 384 Kbps
Channel(s) : 6 channels
Channel positions : Front: L C R, Side: L R, LFE
Sampling rate : 48.0 KHz
Bit depth : 16 bits
Compression mode : Lossy
Delay relative to video : 1s 800ms
Stream size : 255 MiB (17%)
Alignment : Split accross interleaves
Interleave, duration : 40 ms (1.00 video frame)
Interleave, preload duration : 500 ms
-
-
-
Download / Скачать

Хотите скачать бесплатно? Зарегистрируйтесь на сайте (ссылка на регистрацию). Pirat.ca - самый быстрый торрент трекер в рунете!

Как скачивать  ·   Что такое торрент  ·   Рейтинг и ограничения

Пост 05-Май-2012 09:46 (спустя 14 минут)

Топик был перенесен из форума Мультипликация в форум Новинки (HD|DVD|BD|TV|SAT|PDTV| - Rips)

erchine
 

dimonpa

Гроза морей

Пост 05-Май-2012 17:33 (спустя 8 часов)

[Q] 

[Профиль]  [ЛС] 

Makasik

Корсар

1085

Пост 05-Май-2012 17:39 (спустя 6 минут)

[Q] 

[Профиль]  [ЛС] 

Gromozek69

Шкипер

Пост 17-Май-2012 11:28 (спустя 11 дней)

[Q] 


_________________
[Профиль]  [ЛС] 

Александр44

Корсар

Пост 17-Май-2012 19:37 (спустя 8 часов)

[Q] 

[Профиль]  [ЛС] 

Voland57

Корсар

Пост 17-Май-2012 20:35 (спустя 57 минут)

[Q] 

[Профиль]  [ЛС] 

alexis164

Морской Волк

Пост 06-Июн-2012 18:42 (спустя 19 дней)

[Q] 

Пускай это очередная депрессивная история о нелёгкой судьбе больного подростка,фильм мне действительно понравился. Прекрасная актёрская игра (особенно главного исполнителя) не оставляет зрителя равнодушным.
Кстати,была бы очень благодарна,если бы кто-то подсказал название песни,играющей в фильме на 41-ой минуте))
[Профиль]  [ЛС] 

anonymoys

Гроза морей

901

Пост 06-Июн-2012 20:38 (спустя 1 час 56 минут)

[Q] 

[Профиль]  [ЛС] 

Пост 20-Июн-2012 13:14 (спустя 13 дней)

Топик был перенесен из форума Новинки (HD|DVD|BD|TV|SAT|PDTV| - Rips) в форум Современное кино (с 2000 г.)

erchine
 

antis1962

Корсар

Пост 20-Июн-2013 00:03 (спустя 1 год)

[Q] 

СПАСИБО!!!!
[Профиль]  [ЛС] 

BofRank

Корсар

535

Пост 15-Июл-2013 09:48 (спустя 25 дней)

[Q] 

[Профиль]  [ЛС] 

Alexe10

Гроза морей

36

Пост 14-Дек-2013 13:56 (спустя 4 месяца 30 дней)

[Q] 

надо посмотреть
[Профиль]  [ЛС] 

vetalyap

Морской Волк

Пост 14-Дек-2013 23:34 (спустя 9 часов)

[Q] 

Посмотрим...Заценим...
[Профиль]  [ЛС] 
Показать сообщения:    
Ответить на тему

Текущее время: Сегодня 06:02

Часовой пояс: GMT + 4



Вы не можете начинать темы
Вы не можете отвечать на сообщения
Вы не можете редактировать свои сообщения
Вы не можете удалять свои сообщения
Вы не можете голосовать в опросах
Вы не можете прикреплять файлы к сообщениям
Вы не можете скачивать файлы

▼ Вниз