ML
     
  Уважаемый Гость!
Вы можете поддержать проект и зарегистрироваться у наших партнеров - онлайн-стратегия MyLands. При регистрации в игре Вы получите код, который сможете активировать после регистрации на pirat.ca и получить 1000 дублонов.

Ваш код:
ea554e7ed3eacceeae87a8b30a9de3f086c18a84
 
     

Друзья ангелов - Между мечтой и реальностью / Angel's Friends - Tra Sogno e Realtà (Орландо Корради / Orlando Corradi) [2011 г., мультфильм, SATRip-AVC] MVO (Мультимания)

Ответить на тему
 
Автор
Сообщение

Пост 06-Май-2012 21:11

[Q] 

erchine

Друзья ангелов - Между мечтой и реальностью-Angel's Friends - Tra Sogno e Realtà Год выпуска: 2011
Мировая премьера: 23 апреля 2011
Производство: Италия
Жанр: мультфильм
Продолжительность: 01:23:32
Перевод: Профессиональный (многоголосый, закадровый) [Мультимания]
Субтитры: отсутствуют
Режиссер: Орландо Корради / Orlando Corradi
Описание
Раф уже прошла целый год обучения в Золотой школе. Наступили долгожданные каникулы. Но и на каникулах друзья не расстаются, они встречаются в летнем лагере. И, конечно же, Демоны оказываются рядом. Им всем снова придется объединиться, чтобы разгадать тайну, которая не была разгадана еще со времен Тайко и Саи.
IMDB , КиноПоиск
Источник/Качество: SATRip-AVC
Формат: MKV
Видео кодек: H.264
Аудио кодек: MP2
Видео: MPEG4 Video (H264) 704x400 25.00fps 954 Kbps 0.135 Bits/(Pixel*Frame)
Аудио: MPEG Audio Layer 2 48000Hz stereo 192 Kbps
General
Complete name : J:\Angels.FriendsSATRipAVC.mkv
Format : Matroska
File size : 698 MiB
Duration : 1h 23mn
Overall bit rate : 1 169 Kbps
Encoded date : UTC 2012-04-15 08:46:40
Writing application : mkvmerge v5.0.1 ('Es ist Sommer') built on Nov 6 2011 16:23:40
Writing library : libebml v1.2.2 + libmatroska v1.3.0
Video
ID : 1
Format : AVC
Format/Info : Advanced Video Codec
Format profile : [email protected]
Format settings, CABAC : Yes
Format settings, ReFrames : 16 frames
Muxing mode : Container [email protected]
Codec ID : V_MPEG4/ISO/AVC
Duration : 1h 23mn
Bit rate : 954 Kbps
Nominal bit rate : 975 Kbps
Width : 704 pixels
Height : 400 pixels
Display aspect ratio : 16:9
Frame rate mode : Variable
Frame rate : 25.000 fps
Resolution : 8 bits
Colorimetry : 4:2:0
Scan type : Progressive
Bits/(Pixel*Frame) : 0.135
Stream size : 570 MiB (82%)
Writing library : x264 core 119 r2106 07efeb4
Encoding settings : cabac=1 / ref=16 / deblock=1:1:1 / analyse=0x3:0x133 / me=umh / subme=10 / psy=1 / psy_rd=0.40:0.00 / mixed_ref=1 / me_range=24 / chroma_me=1 / trellis=2 / 8x8dct=1 / cqm=0 / deadzone=21,11 / fast_pskip=1 / chroma_qp_offset=-2 / threads=6 / sliced_threads=0 / nr=0 / decimate=1 / interlaced=0 / bluray_compat=0 / constrained_intra=0 / bframes=10 / b_pyramid=2 / b_adapt=2 / b_bias=0 / direct=3 / weightb=1 / open_gop=0 / weightp=2 / keyint=250 / keyint_min=25 / scenecut=40 / intra_refresh=0 / rc_lookahead=60 / rc=2pass / mbtree=1 / bitrate=975 / ratetol=1.0 / qcomp=0.60 / qpmin=0 / qpmax=69 / qpstep=4 / cplxblur=20.0 / qblur=0.5 / ip_ratio=1.40 / aq=1:0.60
Audio
ID : 2
Format : MPEG Audio
Format version : Version 1
Format profile : Layer 2
Codec ID : A_MPEG/L2
Codec ID/Hint : MP2
Duration : 1h 23mn
Bit rate mode : Constant
Bit rate : 192 Kbps
Channel(s) : 2 channels
Sampling rate : 48.0 KHz
Stream size : 115 MiB (16%)
Download / Скачать

Хотите скачать бесплатно? Зарегистрируйтесь на сайте (ссылка на регистрацию). Pirat.ca - самый быстрый торрент трекер в рунете!

Как скачивать  ·   Что такое торрент  ·   Рейтинг и ограничения

Пост 06-Май-2012 21:32 (спустя 21 минута)

Топик был перенесен из форума Мультипликация в форум Зарубежные полнометражные мультфильмы

zyyx
 

Анна Каштаева

Шкипер

Пост 18-Июн-2012 11:50 (спустя 1 месяц 11 дней)

[Q] 

[Профиль]  [ЛС] 
Показать сообщения:    
Ответить на тему

Текущее время: Сегодня 12:10

Часовой пояс: GMT + 4



Вы не можете начинать темы
Вы не можете отвечать на сообщения
Вы не можете редактировать свои сообщения
Вы не можете удалять свои сообщения
Вы не можете голосовать в опросах
Вы не можете прикреплять файлы к сообщениям
Вы не можете скачивать файлы

▼ Вниз