ML
     
  Уважаемый Гость!
Вы можете поддержать проект и зарегистрироваться у наших партнеров - онлайн-стратегия MyLands. При регистрации в игре Вы получите код, который сможете активировать после регистрации на pirat.ca и получить 1000 дублонов.

Ваш код:
193c38d0130f05c24de871678ea3ac181461757d
 
     

Навсикая из Долины Ветров / Kaze no tani no Naushika (Хаяо Миядзаки) [1984 г., приключения, фэнтези, драма, DVDRip] (RUS)

Ответить на тему
 
Автор
Сообщение

Пост 07-Дек-2011 17:11

[Q] 

Андря

Навсикая из Долины Ветров / Kaze no tani no Naushika
Год выпуска: 1984
Страна: Япония
Жанр: приключения, фэнтези, драма
Продолжительность: 1:52:19
Перевод: Профессиональный (полное дублирование)
Субтитры: отсутствуют
Режиссер: Хаяо Миядзаки \ Hayao Miyazaki
Описание: В будущем человечество, столетиями безоглядно эксплуатировавшее природу, пало жертвой своей гордыни. Землю постигла ужасная экологическая катастрофа, процветающие когда-то промышленные цивилизации обратились в прах, а поверхность планеты покрыло гигантское море Леса, испускающее в атмосферу ядовитые споры своих растений.
Оставшимся в живых людям приходится жить в тени Леса и его чудовищных насекомообразных обитателей, пытаясь не допустить распостранения вредоносной растительности. Мирная Долина Ветров — одно из царств, образовавшихся на руинах прежних государств. Жители Долины обожают своего доброго правителя и его дочь Навсикаю, необычную девочку, находящую общий язык с исполинскими насекомыми Леса, странными порождениями нарушенной экосистемы.
Но безмятежное существование Долины Ветров нарушается, когда маленькая страна становится пешкой в играх крупных воинственных соседей, сражающихся за остатки драгоценных природных ресурсов планеты. Тем не менее, скрытому потенциалу Навсикаи ещё предстоит раскрыться, и юной принцессе, возможно, удастся изменить судьбы мира…
Качество: DVDRip
Формат: AVI
Видео кодек: DivX
Аудио кодек: AC3
Видео: DivX 6.11 592x320 25.00fps 1197Kbps
Аудио: Dolby AC3 48000Hz stereo 192Kbps
General
Complete name : Навсикая из долины ветров Kaze no tani no Naushika.avi
Format : AVI
Format/Info : Audio Video Interleave
File size : 1.09 GiB
Duration : 1h 52mn
Overall bit rate : 1 395 Kbps
Writing application : VirtualDubMod 1.5.4.1 (build 2178/release)
Writing library : VirtualDubMod build 2178/release
Video
ID : 0
Format : MPEG-4 Visual
Format settings, BVOP : 1
Format settings, QPel : No
Format settings, GMC : No warppoints
Format settings, Matrix : Default (H.263)
Muxing mode : Packed bitstream
Codec ID : DX50
Codec ID/Hint : DivX 5
Duration : 1h 52mn
Bit rate : 1 197 Kbps
Width : 592 pixels
Height : 320 pixels
Display aspect ratio : 1.850
Frame rate : 25.000 fps
Color space : YUV
Chroma subsampling : 4:2:0
Bit depth : 8 bits
Scan type : Progressive
Compression mode : Lossy
Bits/(Pixel*Frame) : 0.253
Stream size : 961 MiB (86%)
Writing library : DivX 6.6.0 (UTC 2007-05-04)
Audio
ID : 1
Format : AC-3
Format/Info : Audio Coding 3
Mode extension : CM (complete main)
Codec ID : 2000
Duration : 1h 52mn
Bit rate mode : Constant
Bit rate : 192 Kbps
Channel(s) : 2 channels
Channel positions : Front: L R
Sampling rate : 48.0 KHz
Bit depth : 16 bits
Compression mode : Lossy
Stream size : 154 MiB (14%)
Alignment : Split accross interleaves
Interleave, duration : 96 ms (2.40 video frames)
Interleave, preload duration : 96 ms
Language : English
Download / Скачать

Хотите скачать бесплатно? Зарегистрируйтесь на сайте (ссылка на регистрацию). Pirat.ca - самый быстрый торрент трекер в рунете!

Как скачивать  ·   Что такое торрент  ·   Рейтинг и ограничения

Пост 08-Дек-2011 07:18 (спустя 14 часов)

Топик был перенесен из форума Мультипликация в форум Зарубежные полнометражные мультфильмы

CaptRom
 

mm1983mm

Штурман

Пост 31-Дек-2011 01:05 (спустя 23 дня)

[Q] 

заценим! спасибо!
[Профиль]  [ЛС] 

cashtaneda

Лоцман

Пост 16-Мар-2012 17:09 (спустя 2 месяца 16 дней)

[Q] 

[Профиль]  [ЛС] 

NINJA_MASTER

2074

Пост 15-Июл-2012 02:52 (спустя 3 месяца 29 дней)

[Q] 

Очередная аниме !!!!!!

_________________
Подпись отключена за нарушение правил форума
[Профиль]  [ЛС] 

Андря ®

8409

Пост 15-Июл-2012 07:59 (спустя 5 часов)

[Q] 

NINJA_MASTER, ))

_________________
Като Тешекика
[Профиль]  [ЛС] 

Alexe10

Гроза морей

36

Пост 23-Окт-2014 08:17 (спустя 2 года 3 месяца)

[Q] 

Всем качать!!! Супер!
[Профиль]  [ЛС] 
Показать сообщения:    
Ответить на тему

Текущее время: Сегодня 18:03

Часовой пояс: GMT + 4



Вы не можете начинать темы
Вы не можете отвечать на сообщения
Вы не можете редактировать свои сообщения
Вы не можете удалять свои сообщения
Вы не можете голосовать в опросах
Вы не можете прикреплять файлы к сообщениям
Вы не можете скачивать файлы

▼ Вниз