ML
     
  Уважаемый Гость!
Вы можете поддержать проект и зарегистрироваться у наших партнеров - онлайн-стратегия MyLands. При регистрации в игре Вы получите код, который сможете активировать после регистрации на pirat.ca и получить 1000 дублонов.

Ваш код:
db0e0ad91548759ffeb9bb88bed405e1a4b3c165
 
     

Тачки / Cars (Джон Лассетер, Джо Рэнфт / John Lasseter, Joe Ranft) [2006 г., Мультфильм, семейный, комедия, DVDRip] (Dub)

Ответить на тему
 
Автор
Сообщение

Пост 07-Дек-2011 18:59

[Q] 

avzaytsev

Морской Волк

Тачки / Cars
Год выпуска: 2006
Мировая премьера: 14 марта 2006
Российская премьера: 15 июня 2006
Производство: США
Жанр: Мультфильм, семейный, комедия
Продолжительность: 01:56:30
Перевод: Профессиональный (полное дублирование)
Режиссер: Джон Лассетер, Джо Рэнфт / John Lasseter, Joe Ranft
Описание: Герой картины — гоночный автомобиль МакКуин по прозвищу «Молния», привыкший жить только на полной скорости. Во время поездки в Калифорнию, где должен состояться финал автогонок, в которых он участвует, МакКуин во сне вываливается из везущего его трейлера и в надежде его нагнать сбивается с пути, нарушает все мыслимые и немыслимые правила, после чего оказывается арестованным в захолустном городишке Радиатор-Спрингс на Шоссе 66. Там он знакомится с другими персонажами: тягачом Метром (тот хочет стать самым быстрым автомобилем в номинации «ездок задком»), итальянским автомобилем-коммивояжёром Луиджи (который постоянно предлагает «Молнии» купить новые шины), тату-мастером Рамоном (склоняющим МакКуина перекраситься), судьёй Доком (который на самом деле оказывается отшельником, в прошлом знаменитым гонщиком Великим Хадсоном Хорнетом) и звездой города — красавицей Салли Каррера (Порше 911). Все эти машины становятся друзьями Молнии и помогают ему увидеть смысл жизни не только в вечной погоне за славой и успехом, но и в простых «автомобильных» радостях. Сам же МакКуин помогает друзьям вдохнуть новую жизнь в город, который был вычеркнут из всех автомобильных карт после того, как в обход него было проложено новое современное скоростное шоссе.
КиноПоиск
Источник/Качество: DVDRip
Формат: AVI
Видео кодек: XviD
Аудио кодек: AC3
Видео: 720x304 (2.37:1), 23.976 fps, XviD MPEG-4 ~1465 kbps avg, 0.28 bit/pixel
Аудио: 48 kHz, AC3 Dolby Digital, 3/2 (L,C,R,l,r) + LFE ch, ~320 kbps
Оскар, 2007 год: Лучшая песня — «Our Town», Лучший анимационный фильм
Золотой глобус, 2007 год: Лучший анимационный фильм
Британская академия, 2007 год: Лучший анимационный фильм
Сатурн, 2007 год: Лучший анимационный фильм
Общее
Полное имя : Тачки.avi
Формат : AVI
Формат/Информация : Audio Video Interleave
Размер файла : 1,46 Гбайт
Продолжительность : 1 ч. 56 м.
Общий поток : 1795 Кбит/сек
Программа кодирования : VirtualDubModRus 1.5.10.2 (build 2542/release)
Видео
Идентификатор : 0
Формат : MPEG-4 Visual
Профиль формата : Advanced [email protected]
Параметр BVOP формата : 2
Параметр QPel формата : Нет
Параметр GMC формата : Без точки перехода
Параметр матрицы формата : Default (MPEG)
Режим смешивания : Сжатый битовый поток
Идентификатор кодека : XVID
Идентификатор кодека/Подсказка : XviD
Продолжительность : 1 ч. 56 м.
Битрейт : 1465 Кбит/сек
Ширина : 720 пикселей
Высота : 304 пикселя
Соотношение сторон : 2,35:1
Частота кадров : 23,976 кадра/сек
Цветовое пространство : YUV
Субдискретизация насыщенности : 4:2:0
Битовая глубина : 8 бит
Тип развёртки : Прогрессивная
Метод сжатия : С потерями
Бит/(Пиксели*Кадры) : 0.279
Размер потока : 1,19 Гбайт (82%)
Библиотека кодирования : XviD 1.2.1 (UTC 2008-12-04)
Аудио
Идентификатор : 1
Формат : AC-3
Формат/Информация : Audio Coding 3
Расширение режима : CM (complete main)
Идентификатор кодека : 2000
Продолжительность : 1 ч. 56 м.
Вид битрейта : Постоянный
Битрейт : 320 Кбит/сек
Каналы : 6 каналов
Расположение каналов : Front: L C R, Side: L R, LFE
Частота : 48,0 КГц
Битовая глубина : 16 бит
Метод сжатия : С потерями
Размер потока : 267 Мбайт (18%)
Выравнивание : Разделение по промежуткам
Продолжительность промежутка : 42 мс. (1,00 видеокадр)
Время предзагрузки промежутка : 500 мс.



Download / Скачать

Хотите скачать бесплатно? Зарегистрируйтесь на сайте (ссылка на регистрацию). Pirat.ca - самый быстрый торрент трекер в рунете!

Как скачивать  ·   Что такое торрент  ·   Рейтинг и ограничения

Пост 07-Дек-2011 22:09 (спустя 3 часа)

Топик был перенесен из форума Мультипликация в форум Зарубежные полнометражные мультфильмы

Sirota
 

OlegSh

Морской Волк

Пост 26-Дек-2011 15:05 (спустя 18 дней)

[Q] 

это уже классика, еще раз посмотрю
[Профиль]  [ЛС] 

Alexe10

Гроза морей

36

Пост 23-Окт-2014 08:25 (спустя 2 года 9 месяцев)

[Q] 

Раздающему респект!
[Профиль]  [ЛС] 

Strix

Флибустьер

Пост 15-Фев-2015 09:54 (спустя 3 месяца 23 дня)

[Q] 

Спасибо Автору респект!!!
[Профиль]  [ЛС] 
Показать сообщения:    
Ответить на тему

Текущее время: Сегодня 08:10

Часовой пояс: GMT + 4



Вы не можете начинать темы
Вы не можете отвечать на сообщения
Вы не можете редактировать свои сообщения
Вы не можете удалять свои сообщения
Вы не можете голосовать в опросах
Вы не можете прикреплять файлы к сообщениям
Вы не можете скачивать файлы

▼ Вниз