ML
     
  Уважаемый Гость!
Вы можете поддержать проект и зарегистрироваться у наших партнеров - онлайн-стратегия MyLands. При регистрации в игре Вы получите код, который сможете активировать после регистрации на pirat.ca и получить 1000 дублонов.

Ваш код:
822959f93c00d34653763d5bbf9ee9a7134af98a
 
     

Смелый большой панда / Little Big Panda (Грег Манваринг, Майкл Шуманн / Greg Manwaring, Michael Schoemann) [2010 г., мультфильм, BDRip-AVC] Dub [internal release]

Ответить на тему
 
Автор
Сообщение

Пост 12-Июн-2012 07:56

[Q] 

erchine

Смелый большой панда / Little Big Panda Год выпуска: 2010
Мировая премьера: 3 февраля 2011
Российская премьера: 5 мая 2011
Дата выхода DVD: 26 мая 2011
Дата выхода Blu-Ray: 4 июня 2012
Производство: Германия, Китай
Жанр: мультфильм
Продолжительность: 01:27:25
Перевод: Профессиональный (полное дублирование)
Режиссер: Грег Манваринг, Майкл Шуманн / Greg Manwaring, Michael Schoemann
Описание
Человек против дикой природы! Жизнь обитателей бамбуковой рощи под угрозой. Остановить армию двуногих варваров никому не под силу… Кроме отважного, ловкого, неуязвимого и остроумного Панды. Он окажется в самом сердце веселых приключений и опасных испытаний, чтобы спасти сородичей и стать Царем зверей!
Сэмпл , IMDB , КиноПоиск
Источник/Качество: BDRip-AVC
Формат: MKV
Видео кодек: H.264
Аудио кодек: AC3
Видео: MPEG4 Video (H264) 1024x576 24fps 1730 Kbps
Аудио: Dolby AC3 48000Hz 6ch 640 Kbps
General
Unique ID : 220650378527805381553521035882330442091 (0xA5FFB7957C1F7AF6B6E4EA9421ADC96B)
Complete name : I:\Smelii.bolshoi.panda.mkv
Format : Matroska
Format version : Version 2
File size : 1.45 GiB
Duration : 1h 27mn
Overall bit rate : 2 372 Kbps
Encoded date : UTC 2012-06-10 20:29:34
Writing application : mkvmerge v5.0.1 ('Es ist Sommer') built on Nov 6 2011 16:23:40
Writing library : libebml v1.2.2 + libmatroska v1.3.0
Video
ID : 1
Format : AVC
Format/Info : Advanced Video Codec
Format profile : [email protected]
Format settings, CABAC : Yes
Format settings, ReFrames : 7 frames
Codec ID : V_MPEG4/ISO/AVC
Duration : 1h 27mn
Bit rate : 1 730 Kbps
Width : 1 024 pixels
Height : 576 pixels
Display aspect ratio : 16:9
Frame rate : 24.000 fps
Color space : YUV
Chroma subsampling : 4:2:0
Bit depth : 8 bits
Scan type : Progressive
Bits/(Pixel*Frame) : 0.122
Stream size : 1.03 GiB (71%)
Writing library : x264 core 119 r2106 07efeb4
Encoding settings : cabac=1 / ref=7 / deblock=1:1:1 / analyse=0x3:0x133 / me=umh / subme=9 / psy=1 / psy_rd=0.40:0.00 / mixed_ref=1 / me_range=24 / chroma_me=1 / trellis=2 / 8x8dct=1 / cqm=0 / deadzone=21,11 / fast_pskip=0 / chroma_qp_offset=-2 / threads=3 / sliced_threads=0 / nr=0 / decimate=1 / interlaced=0 / bluray_compat=0 / constrained_intra=0 / bframes=4 / b_pyramid=2 / b_adapt=2 / b_bias=0 / direct=3 / weightb=1 / open_gop=0 / weightp=2 / keyint=250 / keyint_min=24 / scenecut=40 / intra_refresh=0 / rc_lookahead=60 / rc=2pass / mbtree=1 / bitrate=1730 / ratetol=1.0 / qcomp=0.60 / qpmin=0 / qpmax=69 / qpstep=4 / cplxblur=20.0 / qblur=0.5 / ip_ratio=1.40 / aq=1:0.60
Audio
ID : 2
Format : AC-3
Format/Info : Audio Coding 3
Mode extension : CM (complete main)
Codec ID : A_AC3
Duration : 1h 27mn
Bit rate mode : Constant
Bit rate : 640 Kbps
Channel(s) : 6 channels
Channel positions : Front: L C R, Side: L R, LFE
Sampling rate : 48.0 KHz
Bit depth : 16 bits
Compression mode : Lossy
Stream size : 400 MiB (27%)
Download / Скачать

Хотите скачать бесплатно? Зарегистрируйтесь на сайте (ссылка на регистрацию). Pirat.ca - самый быстрый торрент трекер в рунете!

Как скачивать  ·   Что такое торрент  ·   Рейтинг и ограничения

Пост 12-Июн-2012 10:00 (спустя 2 часа 3 минуты)

Топик был перенесен из форума Мультипликация в форум Зарубежные полнометражные мультфильмы

zyyx
 

Vlad__treker

Морской Волк

184

Пост 12-Июн-2012 12:15 (спустя 4 часа)

[Q] 

ничего себе рипчик с 640кб/сек

_________________
...:::Pirat.ca:::...
..:::The Best:::...
[Профиль]  [ЛС] 

nadabibak

Гроза морей

Пост 12-Июн-2012 23:16 (спустя 11 часов)

[Q] 

Спасибо за раздачу, мультфильм очень добрый и хороший .
[Профиль]  [ЛС] 

CHARLI2236

1097

Пост 03-Мар-2014 11:20 (спустя 1 год 8 месяцев)

[Q] 

подключусь AntiZip 1

_________________
[Профиль]  [ЛС] 
Показать сообщения:    
Ответить на тему

Текущее время: Сегодня 05:56

Часовой пояс: GMT + 4



Вы не можете начинать темы
Вы не можете отвечать на сообщения
Вы не можете редактировать свои сообщения
Вы не можете удалять свои сообщения
Вы не можете голосовать в опросах
Вы не можете прикреплять файлы к сообщениям
Вы не можете скачивать файлы

▼ Вниз