ML
     
  Уважаемый Гость!
Вы можете поддержать проект и зарегистрироваться у наших партнеров - онлайн-стратегия MyLands. При регистрации в игре Вы получите код, который сможете активировать после регистрации на pirat.ca и получить 1000 дублонов.

Ваш код:
cc3be08b7507661c03e0a2f582d0da3a659ea55a
 
     

Тарбозавр / Jeombaki: Hanbandoeui Gongryong (Сань-хо Хань / Sang-ho Han) [2011 г., Мультфильм, приключения, HDRip] Dub (Лицензия)

Ответить на тему
 
Автор
Сообщение

Пост 13-Июн-2012 19:43

[Q] 

dimkoba

Тарбозавр / Jeombaki: Hanbandoeui Gongryong
«Поединок начинается...»
Год выпуска: 2011
Мировая премьера: 26 января 2012
Российская премьера: 17 мая 2012, «Каравелла DDC»
Дата выхода DVD: 13 июня 2012, «Кармен Видео»
Дата выхода Blu-Ray: 13 июня 2012, «Кармен Видео»
Производство: Корея Южная / Olive Studio
Жанр: Мультфильм, приключения
Продолжительность: 01:28:39
Перевод: Профессиональный (полное дублирование) [Лицензия]
Режиссер: Сань-хо Хань / Sang-ho Han
В ролях
Динозавры
Описание
70 миллионов лет назад динозавры владели миром. В бескрайних лесах обитало бесчисленное множество разновидностей этих удивительных животных. Самый молодой из семьи Тарбозавров, игривый и любопытный малыш по имени Пятнистый, с нетерпением ждет, когда же старшие собратья возьмут его на охоту, чтобы преподать первые уроки взрослой жизни. Но когда наступает этот долгожданный день, на стадо тарбозавров нападает жуткий тираннозавр Одноглазый. Потерявшись, Пятнистый встречается с другим динозавриком, отбившимся от родных, — Синеглазкой. Отныне малышам предстоит вместе сражаться за жизнь. Впереди друзей ждут долгие годы, наполненные любовью, страхом, печалью и радостью, счастьем и надеждой.Сэмпл , IMDB , КиноПоискИсточник/Качество: HDRip
Формат: AVI
Видео кодек: XviD
Аудио кодек: AC3
Видео: 720x400, 23,976 fps, 1754 kb/s,
Аудио: 48000 Hz, 448 kb/s, (6 ch)
Полное имя : D:\загрузка\TrabozawR.[Pirat.ca].avi
Формат : AVI
Формат/Информация : Audio Video Interleave
Размер файла : 1,37 Гбайт
Продолжительность : 1 ч. 28 м.
Общий поток : 2211 Кбит/сек
Видео
Идентификатор : 0
Формат : MPEG-4 Visual
Профиль формата : Advanced [email protected]
Параметр BVOP формата : 2
Параметр QPel формата : Нет
Параметр GMC формата : Без точки перехода
Параметр матрицы формата : Выборочная
Идентификатор кодека : XVID
Идентификатор кодека/Подсказка : XviD
Продолжительность : 1 ч. 28 м.
Битрейт : 1754 Кбит/сек
Ширина : 720 пикселей
Высота : 400 пикселей
Соотношение сторон : 16:9
Частота кадров : 23,976 кадра/сек
Цветовое пространство : YUV
Субдискретизация насыщенности : 4:2:0
Битовая глубина : 8 бит
Тип развёртки : Прогрессивная
Метод сжатия : С потерями
Бит/(Пиксели*Кадры) : 0.254
Размер потока : 1,09 Гбайт (79%)
Библиотека кодирования : XviD 1.2.1 (UTC 2008-12-04)
Аудио
Идентификатор : 1
Формат : AC-3
Формат/Информация : Audio Coding 3
Расширение режима : CM (complete main)
Идентификатор кодека : 2000
Продолжительность : 1 ч. 28 м.
Вид битрейта : Постоянный
Битрейт : 448 Кбит/сек
Каналы : 6 каналов
Расположение каналов : Front: L C R, Side: L R, LFE
Частота : 48,0 КГц
Битовая глубина : 16 бит
Метод сжатия : С потерями
Размер потока : 284 Мбайт (20%)
Выравнивание : Разделение по промежуткам
Продолжительность промежутка : 42 мс. (1,00 видеокадр)
Время предзагрузки промежутка : 500 мс.
Download / Скачать

Хотите скачать бесплатно? Зарегистрируйтесь на сайте (ссылка на регистрацию). Pirat.ca - самый быстрый торрент трекер в рунете!

Как скачивать  ·   Что такое торрент  ·   Рейтинг и ограничения

Пост 13-Июн-2012 20:54 (спустя 1 час 11 минут)

Топик был перенесен из форума Художественные фильмы (Зарубежное кино) в форум Новинки (HD|DVD|BD|TV|SAT|PDTV| - Rips)

erchine
 

nadabibak

Гроза морей

Пост 13-Июн-2012 21:03 (спустя 1 час 20 минут)

[Q] 

Респект раздающему.
[Профиль]  [ЛС] 

СерВолк

Корсар

Пост 13-Июн-2012 22:45 (спустя 1 час 42 минуты)

[Q] 

[Профиль]  [ЛС] 

sanchela9999

Корсар

Пост 13-Июн-2012 22:52 (спустя 7 минут)

[Q] 

От сыну порадую!Душевное спасибо!
[Профиль]  [ЛС] 

got70

Легенда

752

Пост 14-Июн-2012 06:48 (спустя 7 часов)

[Q] 


_________________
Добро непременно победит зло!Непременно...Затем поставит на колени,и зверски УБЬЁТ!
[Профиль]  [ЛС] 

dimonpa

Гроза морей

Пост 14-Июн-2012 08:26 (спустя 1 час 37 минут)

[Q] 

[Профиль]  [ЛС] 

Daymatsu

Лоцман

Пост 14-Июн-2012 09:11 (спустя 44 минуты)

[Q] 

[Профиль]  [ЛС] 

buba-79

Флибустьер

Пост 14-Июн-2012 10:03 (спустя 51 минута)

[Q] 

[Профиль]  [ЛС] 

ildar_ik

Шкипер

Пост 14-Июн-2012 11:48 (спустя 1 час 45 минут)

[Q] 

прикольный мультик. всем советую
[Профиль]  [ЛС] 

Jek@

Легенда

Пост 14-Июн-2012 12:20 (спустя 31 минута)

[Q] 

.
[Профиль]  [ЛС] 

Муравей

Корсар

Пост 14-Июн-2012 12:50 (спустя 29 минут)

[Q] 

Ну раз так советуете значит заценим.
[Профиль]  [ЛС] 

yasha122

Морской Волк

Пост 14-Июн-2012 12:54 (спустя 4 минуты)

[Q] 

[Профиль]  [ЛС] 

gamm1beer

Морской Волк

Пост 17-Июн-2012 00:33 (спустя 2 дня 11 часов)

[Q] 

Люблю про динозаврычей

_________________
[Профиль]  [ЛС] 

ulman

Шкипер

Пост 17-Июн-2012 20:00 (спустя 19 часов)

[Q] 

[Профиль]  [ЛС] 

Yakudza

Шкипер

Пост 17-Июн-2012 23:03 (спустя 3 часа)

[Q] 

[Профиль]  [ЛС] 

ursus

Морской Волк

Пост 19-Июн-2012 12:50 (спустя 1 день 13 часов)

[Q] 

[Профиль]  [ЛС] 

Aleks44

Гроза морей

Пост 27-Июн-2012 21:45 (спустя 8 дней)

[Q] 

Для ребенка будет интересно для общего развития посмотреть интересный мульт
[Профиль]  [ЛС] 

MouseEx

Шкипер

Пост 28-Июн-2012 11:55 (спустя 14 часов)

[Q] 

Очень хороший мультик. Только осторожнее с возрастом детей, которым будете показывать. Это только сначала там в стиле "Вот динозавр, он идет. А вот он кушает". Там и жестокость и жутко душещипательные моменты, да такие, что мы, двое тридцатилетних людей, пускали слезу. Я бы своему сыну до школы не стала показывать, пожалуй. Но все равно мультик - замечательный.

_________________
As long as a single of us stands we are legion. /Kain/
[Профиль]  [ЛС] 

luzanand

Лоцман

Пост 02-Июл-2012 14:14 (спустя 4 дня)

[Q] 

[Профиль]  [ЛС] 

адамс

Шкипер

Пост 09-Июл-2012 21:39 (спустя 7 дней)

[Q] 

[Профиль]  [ЛС] 

$МАКС$

Штурман

Пост 10-Июл-2012 21:33 (спустя 23 часа)

[Q] 

[Профиль]  [ЛС] 

Пост 14-Июл-2012 15:06 (спустя 3 дня)

Топик был перенесен из форума Новинки (HD|DVD|BD|TV|SAT|PDTV| - Rips) в форум Зарубежные полнометражные мультфильмы

erchine
 

SamsonGinex

Штурман

120

Пост 04-Авг-2012 00:59 (спустя 24 дня)

[Q] 

[Профиль]  [ЛС] 

помпаж.

Лоцман

Пост 29-Апр-2013 20:35 (спустя 8 месяцев 25 дней)

[Q] 

Детям до 12 лучше не смотреть(слишком жестокий) а тем кто постарше уже не интересно будет-немного наивный. Раздающему-спасибо.
[Профиль]  [ЛС] 

xlSior

Шкипер

Пост 09-Май-2013 20:29 (спустя 9 дней)

[Q] 

[Профиль]  [ЛС] 
Показать сообщения:    
Ответить на тему

Текущее время: Сегодня 05:06

Часовой пояс: GMT + 4



Вы не можете начинать темы
Вы не можете отвечать на сообщения
Вы не можете редактировать свои сообщения
Вы не можете удалять свои сообщения
Вы не можете голосовать в опросах
Вы не можете прикреплять файлы к сообщениям
Вы не можете скачивать файлы

▼ Вниз