ML
     
  Уважаемый Гость!
Вы можете поддержать проект и зарегистрироваться у наших партнеров - онлайн-стратегия MyLands. При регистрации в игре Вы получите код, который сможете активировать после регистрации на pirat.ca и получить 1000 дублонов.

Ваш код:
0af2e2107bc9b5dd5ac2c09f9fc25e1a77c43887
 
     

Три богатыря на дальних берегах (Константин Феоктистов) [2012 г., мультфильм, комедия, приключения, DVDRip] [Лицензия]

Страницы :  1, 2, 3, 4, 5  След.

Ответить на тему
 
Автор
Сообщение

Пост 15-Янв-2013 16:13

[Q] 

AGKRus36

-Три богатыря на дальних берегах-- -Производство: Россия, Мельница
Режиссер: Константин Феоктистов
Жанр: мультфильм, комедия, приключения
Год выпуска: 2012 г.
Продолжительность: 01:08:22-Мировая премьера: 27 декабря 2012
Российская премьера: 27 декабря 2012, «Наше Кино»
Перевод: Не требуется [Лицензия]-Роли озвучивали: Дмитрий Быковский-Ромашов, Валерий Соловьев, Олег Куликович, Сергей Маковецкий, Дмитрий Высоцкий, Фёдор Бондарчук, Елизавета Боярская, Мария Цветкова-Овсянникова, Елена Шульман, Лия Медведева-Описание: На этот раз Алеша Попович, Добрыня Никитич и Илья Муромец, благодаря козням коварной Бабы Яги, оказываются за семью морями на острове, на котором живут туземцы и страшный Гомума. В их отсутствие купец Колыван решают вместе с Бабой-Ягой захватить царство и забрать власть у князя Киевского. На помощь незадачливому правителю приходит конь Юлий, а также жены богатырей и их многочисленные родственники. Словом, богатырей и зрителей ждут приключения на дальних берегах, обыкновенные и невероятные.-Сэмпл КиноПоиск
Качество видео: DVDRip
Формат видео: AVI
Видео кодек: XviD
Аудио кодек: AC3
Видео: 720x400 (1.80:1), 25 fps, XviD build 50 ~2399 kbps avg, 0.33 bit/pixel
Аудио: 48 kHz, AC3 Dolby Digital, 3/2 (L,C,R,l,r) + LFE ch, ~448 kbps
Cубтитры: отсутствуют
D:\Фильмы\Три богатыря на дальних берегах (2012) DVDRip\Tri.bogatirya.na.dalnih.beregah.2012.O.DVDRip.1400Mbt.avi
General
Complete name : D:\Фильмы\Три богатыря на дальних берегах (2012) DVDRip\Tri.bogatirya.na.dalnih.beregah.2012.O.DVDRip.1400Mbt.avi
Format : AVI
Format/Info : Audio Video Interleave
File size : 1.36 GiB
Duration : 1h 8mn
Overall bit rate : 2 857 Kbps
Writing application : VirtualDubMod 1.5.10.3 | www.virtualdub-fr.org || (build 2550/release)
Writing library : VirtualDubMod build 2550/release
Video #0
ID : 0
Format : MPEG-4 Visual
Format profile : Advanced [email protected]
Format settings, BVOP : 2
Format settings, QPel : No
Format settings, GMC : No warppoints
Format settings, Matrix : Default (MPEG)
Codec ID : XVID
Codec ID/Hint : XviD
Duration : 1h 8mn
Bit rate : 2 399 Kbps
Width : 720 pixels
Height : 400 pixels
Display aspect ratio : 16:9
Frame rate : 25.000 fps
Color space : YUV
Chroma subsampling : 4:2:0
Bit depth : 8 bits
Scan type : Progressive
Compression mode : Lossy
Bits/(Pixel*Frame) : 0.333
Stream size : 1.15 GiB (84%)
Writing library : XviD 1.2.1 (UTC 2008-12-04)
Audio #1
ID : 1
Format : AC-3
Format/Info : Audio Coding 3
Mode extension : CM (complete main)
Format settings, Endianness : Big
Codec ID : 2000
Duration : 1h 8mn
Bit rate mode : Constant
Bit rate : 448 Kbps
Channel(s) : 6 channels
Channel positions : Front: L C R, Side: L R, LFE
Sampling rate : 48.0 KHz
Bit depth : 16 bits
Compression mode : Lossy
Stream size : 219 MiB (16%)
Alignment : Split accross interleaves
Interleave, duration : 40 ms (1.00 video frame)
Interleave, preload duration : 500 ms
Download / Скачать

Хотите скачать бесплатно? Зарегистрируйтесь на сайте (ссылка на регистрацию). Pirat.ca - самый быстрый торрент трекер в рунете!

Как скачивать  ·   Что такое торрент  ·   Рейтинг и ограничения

pipez290681

Штурман

Пост 15-Янв-2013 17:11 (спустя 58 минут)

[Q] 

НУ спосибки мил человек!
[Профиль]  [ЛС] 

kmv01

Гроза морей

Пост 15-Янв-2013 17:12 (спустя 42 секунды)

[Q] 

Спасибо!
[Профиль]  [ЛС] 

-B1ack-

1884

Пост 15-Янв-2013 17:28 (спустя 16 минут)

[Q] 

AGKRus36
спасибо, но подожду в HD и выше. ром закинул

_________________
[Профиль]  [ЛС] 

Пост 15-Янв-2013 17:29 (спустя 1 минута)

Топик был перенесен из форума Мультфильмы (Трюм) в форум Новинки (HD|DVD|BD|TV|SAT|PDTV| - Rips)

ara1205
 

Madarashi

Корсар

Пост 15-Янв-2013 17:48 (спустя 19 минут)

[Q] 

[Профиль]  [ЛС] 

veter13

Корсар

Пост 15-Янв-2013 17:52 (спустя 4 минуты)

[Q] 

[Профиль]  [ЛС] 

Serzh18

Корсар

Пост 15-Янв-2013 18:01 (спустя 8 минут)

[Q] 

[Профиль]  [ЛС] 

byhgalter

Шкипер

Пост 15-Янв-2013 18:19 (спустя 18 минут)

[Q] 

[Профиль]  [ЛС] 

C0y0te

1422

Пост 15-Янв-2013 18:49 (спустя 30 минут)

[Q] 

[Профиль]  [ЛС] 

D1705

Штурман

Пост 15-Янв-2013 18:54 (спустя 4 минуты)

[Q] 

[Профиль]  [ЛС] 

vados220

Морской Волк

Пост 15-Янв-2013 18:54 (спустя 5 секунд)

[Q] 

[Профиль]  [ЛС] 

flesh_208

Корсар

Пост 15-Янв-2013 19:14 (спустя 19 минут)

[Q] 

В топку мульт....автору спс.


Последний раз редактировалось: flesh_208 (2013-01-15 20:26), всего редактировалось 1 раз
[Профиль]  [ЛС] 

persia07

Морской Волк

82

Пост 15-Янв-2013 19:18 (спустя 3 минуты)

[Q] 

[Профиль]  [ЛС] 

Dontist

Шкипер

Пост 15-Янв-2013 19:21 (спустя 3 минуты)

[Q] 

[Профиль]  [ЛС] 

kinstintin

Гроза морей

Пост 15-Янв-2013 19:39 (спустя 18 минут)

[Q] 


[Профиль]  [ЛС] 

Alexe10

Гроза морей

36

Пост 15-Янв-2013 19:47 (спустя 8 минут)

[Q] 

берем!
[Профиль]  [ЛС] 

dimonpa

Гроза морей

Пост 15-Янв-2013 19:51 (спустя 3 минуты)

[Q] 

[Профиль]  [ЛС] 

cruzzel

Корсар

Пост 15-Янв-2013 19:55 (спустя 3 минуты)

[Q] 


_________________
NEWSLOL.NET
[Профиль]  [ЛС] 

honekaterina

Лоцман

Пост 15-Янв-2013 20:06 (спустя 11 минут)

[Q] 

[Профиль]  [ЛС] 

Тёркин

Морской Волк

Пост 15-Янв-2013 20:13 (спустя 7 минут)

[Q] 

[Профиль]  [ЛС] 

polyk

Флибустьер

Пост 15-Янв-2013 20:19 (спустя 5 минут)

[Q] 

[Профиль]  [ЛС] 

Муравей

Корсар

Пост 15-Янв-2013 20:19 (спустя 36 секунд)

[Q] 

С паси бо берём!
[Профиль]  [ЛС] 

sergokov

Флибустьер

754

Пост 15-Янв-2013 20:24 (спустя 5 минут)

[Q] 

[Профиль]  [ЛС] 

romansl

Шкипер

Пост 15-Янв-2013 20:43 (спустя 18 минут)

[Q] 

Даааа, богатыри уже не те :(
Ожидал большего....видно очень хотели бабла срубить по-быстрому.
[Профиль]  [ЛС] 

serafim7

Корсар

99

Пост 15-Янв-2013 20:56 (спустя 12 минут)

[Q] 

[Профиль]  [ЛС] 

stas881

Шкипер

Пост 15-Янв-2013 20:58 (спустя 2 минуты)

[Q] 

[Профиль]  [ЛС] 

Gyljaka

Корсар

Пост 15-Янв-2013 21:02 (спустя 3 минуты)

[Q] 


[Профиль]  [ЛС] 

svetly

Морской Волк

Пост 15-Янв-2013 21:05 (спустя 2 минуты)

[Q] 

[Профиль]  [ЛС] 

dmsushko

Корсар

171

Пост 15-Янв-2013 21:10 (спустя 5 минут)

[Q] 


_________________

[Профиль]  [ЛС] 
Показать сообщения:    
Ответить на тему

Текущее время: Сегодня 00:08

Часовой пояс: GMT + 4



Вы не можете начинать темы
Вы не можете отвечать на сообщения
Вы не можете редактировать свои сообщения
Вы не можете удалять свои сообщения
Вы не можете голосовать в опросах
Вы не можете прикреплять файлы к сообщениям
Вы не можете скачивать файлы

▼ Вниз