ML
     
  Уважаемый Гость!
Вы можете поддержать проект и зарегистрироваться у наших партнеров - онлайн-стратегия MyLands. При регистрации в игре Вы получите код, который сможете активировать после регистрации на pirat.ca и получить 1000 дублонов.

Ваш код:
b70663c760e7cd2521b8e123786cdd788200e3bd
 
     

Три богатыря на дальних берегах (Константин Феоктистов) [2012 г., мультфильм, комедия, приключения, DVDRip] [Лицензия]

Страницы :  1, 2  След.

Ответить на тему
 
Автор
Сообщение

Пост 15-Янв-2013 18:35

[Q] 

AGKRus36

-Три богатыря на дальних берегах-- -Производство: Россия, Мельница
Режиссер: Константин Феоктистов
Жанр: мультфильм, комедия, приключения
Год выпуска: 2012 г.
Продолжительность: 01:08:22-Мировая премьера: 27 декабря 2012
Российская премьера: 27 декабря 2012, «Наше Кино»
Перевод: Не требуется [Лицензия]-Роли озвучивали: Дмитрий Быковский-Ромашов, Валерий Соловьев, Олег Куликович, Сергей Маковецкий, Дмитрий Высоцкий, Фёдор Бондарчук, Елизавета Боярская, Мария Цветкова-Овсянникова, Елена Шульман, Лия Медведева-Описание: На этот раз Алеша Попович, Добрыня Никитич и Илья Муромец, благодаря козням коварной Бабы Яги, оказываются за семью морями на острове, на котором живут туземцы и страшный Гомума. В их отсутствие купец Колыван решают вместе с Бабой-Ягой захватить царство и забрать власть у князя Киевского. На помощь незадачливому правителю приходит конь Юлий, а также жены богатырей и их многочисленные родственники. Словом, богатырей и зрителей ждут приключения на дальних берегах, обыкновенные и невероятные-Сэмпл КиноПоиск
Качество видео: DVDRip
Формат видео: AVI
Видео кодек: XviD
Аудио кодек: AC3
Видео: 720x400 (1.80:1), 25 fps, XviD build 50 ~1171 kbps avg, 0.16 bit/pixel
Аудио: 48 kHz, AC3 Dolby Digital, 3/2 (L,C,R,l,r) + LFE ch, ~256 kbps
Cубтитры: отсутствуют
D:\Фильмы\Три богатыря на дальних берегах (2012) DVDRip\Tri.bogatirya.na.dalnih.beregah.2012.O.DVDRip.700Mb.avi
General
Complete name : D:\Фильмы\Три богатыря на дальних берегах (2012) DVDRip\Tri.bogatirya.na.dalnih.beregah.2012.O.DVDRip.700Mb.avi
Format : AVI
Format/Info : Audio Video Interleave
File size : 703 MiB
Duration : 1h 8mn
Overall bit rate : 1 437 Kbps
Writing application : VirtualDubMod 1.5.10.3 | www.virtualdub-fr.org || (build 2550/release)
Writing library : VirtualDubMod build 2550/release
Video #0
ID : 0
Format : MPEG-4 Visual
Format profile : Advanced [email protected]
Format settings, BVOP : 4
Format settings, QPel : No
Format settings, GMC : No warppoints
Format settings, Matrix : Default (MPEG)
Codec ID : XVID
Codec ID/Hint : XviD
Duration : 1h 8mn
Bit rate : 1 171 Kbps
Width : 720 pixels
Height : 400 pixels
Display aspect ratio : 16:9
Frame rate : 25.000 fps
Color space : YUV
Chroma subsampling : 4:2:0
Bit depth : 8 bits
Scan type : Progressive
Compression mode : Lossy
Bits/(Pixel*Frame) : 0.163
Stream size : 573 MiB (82%)
Writing library : XviD 1.2.1 (UTC 2008-12-04)
Audio #1
ID : 1
Format : AC-3
Format/Info : Audio Coding 3
Mode extension : CM (complete main)
Format settings, Endianness : Big
Codec ID : 2000
Duration : 1h 8mn
Bit rate mode : Constant
Bit rate : 256 Kbps
Channel(s) : 6 channels
Channel positions : Front: L C R, Side: L R, LFE
Sampling rate : 48.0 KHz
Bit depth : 16 bits
Compression mode : Lossy
Stream size : 125 MiB (18%)
Alignment : Split accross interleaves
Interleave, duration : 40 ms (1.00 video frame)
Interleave, preload duration : 500 ms
Download / Скачать

Хотите скачать бесплатно? Зарегистрируйтесь на сайте (ссылка на регистрацию). Pirat.ca - самый быстрый торрент трекер в рунете!

Как скачивать  ·   Что такое торрент  ·   Рейтинг и ограничения



Последний раз редактировалось: AGKRus36 (2013-01-15 19:03), всего редактировалось 1 раз

demon-292

Корсар

Пост 15-Янв-2013 18:56 (спустя 21 минута)

[Q] 

Поглядим! Бочка в трюме!!!
[Профиль]  [ЛС] 

maglot129

Корсар

Пост 15-Янв-2013 19:03 (спустя 7 минут)

[Q] 

бочка!
[Профиль]  [ЛС] 

Wolf111

57066

Пост 15-Янв-2013 19:12 (спустя 9 минут)

[Q] 

[Профиль]  [ЛС] 

persia07

Морской Волк

82

Пост 15-Янв-2013 19:15 (спустя 2 минуты)

[Q] 

[Профиль]  [ЛС] 

Пост 15-Янв-2013 19:18 (спустя 3 минуты)

Топик был перенесен из форума Мультфильмы (Трюм) в форум Новинки (HD|DVD|BD|TV|SAT|PDTV| - Rips)

erchine
 

cruzzel

Корсар

Пост 15-Янв-2013 19:57 (спустя 42 минуты)

[Q] 


_________________
NEWSLOL.NET
[Профиль]  [ЛС] 

alukali

Шкипер

269

Пост 15-Янв-2013 20:11 (спустя 13 минут)

[Q] 

Мульт не о чем, я смотрел его кинотеатре, пародия не понял на что. Качать не буду. Раздающему спасибо за релиз.
[Профиль]  [ЛС] 

uran

Корсар

388

Пост 15-Янв-2013 20:23 (спустя 11 минут)

[Q] 

[Профиль]  [ЛС] 

got70

Легенда

752

Пост 15-Янв-2013 20:26 (спустя 3 минуты)

[Q] 


_________________
Добро непременно победит зло!Непременно...Затем поставит на колени,и зверски УБЬЁТ!
[Профиль]  [ЛС] 

vbFlick

Шкипер

Пост 15-Янв-2013 21:05 (спустя 39 минут)

[Q] 

мульт реально хрень, но ребенок требует) раздающему спс за релиз
[Профиль]  [ЛС] 

alexeyna1

Шкипер

Пост 15-Янв-2013 21:07 (спустя 1 минута)

[Q] 

[Профиль]  [ЛС] 

vik238

Корсар

Пост 15-Янв-2013 21:34 (спустя 27 минут)

[Q] 

[Профиль]  [ЛС] 

ivan836

Морской Волк

Пост 15-Янв-2013 22:24 (спустя 49 минут)

[Q] 

[Профиль]  [ЛС] 

sunsunych5

Шкипер

Пост 15-Янв-2013 22:28 (спустя 4 минуты)

[Q] 

[Профиль]  [ЛС] 

neskor07

Морской Волк

Пост 16-Янв-2013 01:26 (спустя 2 часа 58 минут)

[Q] 

качаю из-за любопытства, раздающему спасибо
[Профиль]  [ЛС] 

Раемия

Флибустьер

Пост 16-Янв-2013 02:48 (спустя 1 час 22 минуты)

[Q] 

Да лааааадно! Прикольный мульт! Вот предыдущий действительно был полной хренью...А этот неплохой,даже посмеяться можно...

_________________
Любите кроликов!!!…и они отплатят вам тем же…
[Профиль]  [ЛС] 

trogvar_10

Корсар

38

Пост 16-Янв-2013 04:32 (спустя 1 час 43 минуты)

[Q] 

[Профиль]  [ЛС] 

ValeraTerechenko

Корсар

142

Пост 16-Янв-2013 06:18 (спустя 1 час 46 минут)

[Q] 

Блин, а я вчера камрип скачал :)) Перекачивать буду))
[Профиль]  [ЛС] 

Lorokruss

Морской Волк

Пост 16-Янв-2013 06:55 (спустя 36 минут)

[Q] 

[Профиль]  [ЛС] 

ropblHbl4

Лоцман

Пост 16-Янв-2013 10:32 (спустя 3 часа)

[Q] 

[Профиль]  [ЛС] 

Mislitel

Лоцман

Пост 17-Янв-2013 21:40 (спустя 1 день 11 часов)

[Q] 

[Профиль]  [ЛС] 

Mitos88

Шкипер

Пост 18-Янв-2013 16:20 (спустя 18 часов)

[Q] 

[Профиль]  [ЛС] 

GodFather3

Корсар

142

Пост 18-Янв-2013 23:46 (спустя 7 часов)

[Q] 

Мне кажется что первые 2 мультика самые нормальные, потом всё хуже и хуже
[Профиль]  [ЛС] 

Пират 2

Штурман

Пост 19-Янв-2013 10:35 (спустя 10 часов)

[Q] 

[Профиль]  [ЛС] 

Smulya

Морской Волк

80

Пост 23-Янв-2013 02:06 (спустя 3 дня)

[Q] 

Наконец-то качество. Заценим

_________________
[Профиль]  [ЛС] 

Wolf111

57066

Пост 25-Янв-2013 22:36 (спустя 2 дня 20 часов)

[Q] 

Ни чё так мульт
[Профиль]  [ЛС] 

pum

Корсар

Пост 26-Янв-2013 14:03 (спустя 15 часов)

[Q] 

Спасибо!!!! Мульт так себе, возможно просто придираюсь, но меня не впечатлил...
[Профиль]  [ЛС] 

svmaxus

Шкипер

Пост 26-Янв-2013 17:35 (спустя 3 часа)

[Q] 

[Профиль]  [ЛС] 

SantaZombie

Шкипер

Пост 26-Янв-2013 20:21 (спустя 2 часа 45 минут)

[Q] 


_________________
[Профиль]  [ЛС] 
Показать сообщения:    
Ответить на тему

Текущее время: Сегодня 00:18

Часовой пояс: GMT + 4



Вы не можете начинать темы
Вы не можете отвечать на сообщения
Вы не можете редактировать свои сообщения
Вы не можете удалять свои сообщения
Вы не можете голосовать в опросах
Вы не можете прикреплять файлы к сообщениям
Вы не можете скачивать файлы

▼ Вниз