ML
     
  Уважаемый Гость!
Вы можете поддержать проект и зарегистрироваться у наших партнеров - онлайн-стратегия MyLands. При регистрации в игре Вы получите код, который сможете активировать после регистрации на pirat.ca и получить 1000 дублонов.

Ваш код:
11f49771fdf057c9d51610e4a0925c3b46ddb655
 
     

Три богатыря на дальних берегах (Константин Феоктистов) [2012 г., Мультфильм, приключения, семейный, DVDRip-AVC] [Лицензия]

Ответить на тему
 
Автор
Сообщение

Пост 16-Янв-2013 11:30

[Q] 

AGKRus36

-Три богатыря на дальних берегах-- -Производство: Россия, Мельница
Режиссер: Константин Феоктистов
Жанр: Мультфильм, приключения, семейный
Год выпуска: 2012 г.
Продолжительность: 01:08:22-Мировая премьера: 27 декабря 2012
Российская премьера: 27 декабря 2012, «Наше Кино»
Перевод: Не требуется [Лицензия]-Роли озвучивали: Сергей Маковецкий, Елизавета Боярская, Фёдор Бондарчук, Дмитрий Быковский, Елена Шульман, Олег Куликович, Лия Медведева, Мария Цветкова, Дмитрий Высоцкий, Анатолий Петров, Наталья Данилова-Описание: Очередное путешествие таит в себе не только новые опасности, но и новые земли. Герои держат путь далеко от дома и как всегда с благородной целью — помочь людям. Кому, зачем и как? Не по-богатырски это — в раздумья пускаться, когда время поджимает и нужно действовать! Правда, помощь иной раз оказывается хуже татарской орды, но богатыри не отчаиваются, тем более что у них много верных помощников. Ради спасения своих друзей, героям придется подчас идти на очень решительные шаги, жертвовать собой и не думать, что ждет их впереди. Но, как известно, удача любит смелых и отважных.- -Качество видео: DVDRip-AVC
Формат видео: MKV
Стандарт разрешения: 576p
Видео кодек: H.264
Аудио кодек: AC3
Видео: 720x576 (1.80:1), 25 fps, XviD build 50 ~2150 kbps avg, 0.21 bit/pixel
Аудио: 48 kHz, AC3 Dolby Digital, 3/2 (L,C,R,l,r) + LFE ch, ~448 kbps
Cубтитры: отсутствуют
D:\Фильмы\Три богатыря на дальних берегах (2012) DVDRip\Tri.bogatirya.na.dalnih.beregah.2012.x264.DVDRip.(AVC).mkv
General
Unique ID : 248298791007790196863395537032137156173 (0xBACC9B90A2901849A0EF44DE72A8264D)
Complete name : D:\Фильмы\Три богатыря на дальних берегах (2012) DVDRip\Tri.bogatirya.na.dalnih.beregah.2012.x264.DVDRip.(AVC).mkv
Format : Matroska
Format version : Version 2
File size : 1.24 GiB
Duration : 1h 8mn
Overall bit rate : 2 601 Kbps
Movie name : |<<| ?? |Alexandr 80| > | ¦ |>>|
Encoded date : UTC 2013-01-16 00:27:49
Writing application : mkvmerge v4.3.0 ('Escape from the Island') сборка от Sep 5 2010 10:30:51
Writing library : libebml v1.0.0 + libmatroska v1.0.0
Video #1
ID : 1
Format : AVC
Format/Info : Advanced Video Codec
Format profile : [email protected]
Format settings, CABAC : Yes
Format settings, ReFrames : 16 frames
Codec ID : V_MPEG4/ISO/AVC
Duration : 1h 8mn
Bit rate : 2 150 Kbps
Width : 720 pixels
Height : 576 pixels
Display aspect ratio : 16:9
Frame rate mode : Constant
Frame rate : 25.000 fps
Standard : PAL
Color space : YUV
Chroma subsampling : 4:2:0
Bit depth : 8 bits
Scan type : Progressive
Bits/(Pixel*Frame) : 0.207
Stream size : 1.00 GiB (81%)
Writing library : x264 core 129 r2230 1cffe9f
Encoding settings : cabac=1 / ref=16 / deblock=1:-2:-2 / analyse=0x3:0x133 / me=umh / subme=9 / psy=1 / psy_rd=0.40:0.00 / mixed_ref=1 / me_range=32 / chroma_me=1 / trellis=2 / 8x8dct=1 / cqm=0 / deadzone=21,11 / fast_pskip=1 / chroma_qp_offset=-2 / threads=10 / lookahead_threads=1 / sliced_threads=0 / nr=0 / decimate=1 / interlaced=0 / bluray_compat=0 / constrained_intra=0 / bframes=3 / b_pyramid=2 / b_adapt=2 / b_bias=0 / direct=3 / weightb=1 / open_gop=0 / weightp=2 / keyint=250 / keyint_min=25 / scenecut=40 / intra_refresh=0 / rc_lookahead=60 / rc=2pass / mbtree=1 / bitrate=2150 / ratetol=2.0 / qcomp=0.60 / qpmin=10 / qpmax=69 / qpstep=4 / cplxblur=20.0 / qblur=0.5 / vbv_maxrate=30000 / vbv_bufsize=10000 / nal_hrd=none / ip_ratio=1.40 / aq=1:0.60
Language : Russian
Default : Yes
Forced : No
Audio #2
ID : 2
Format : AC-3
Format/Info : Audio Coding 3
Mode extension : CM (complete main)
Format settings, Endianness : Big
Codec ID : A_AC3
Duration : 1h 8mn
Bit rate mode : Constant
Bit rate : 448 Kbps
Channel(s) : 6 channels
Channel positions : Front: L C R, Side: L R, LFE
Sampling rate : 48.0 KHz
Bit depth : 16 bits
Compression mode : Lossy
Stream size : 219 MiB (17%)
Language : Russian
Default : Yes
Forced : No
Download / Скачать

Хотите скачать бесплатно? Зарегистрируйтесь на сайте (ссылка на регистрацию). Pirat.ca - самый быстрый торрент трекер в рунете!

Как скачивать  ·   Что такое торрент  ·   Рейтинг и ограничения



Последний раз редактировалось: AGKRus36 (2013-01-16 14:38), всего редактировалось 2 раз(а)

Пост 16-Янв-2013 15:44 (спустя 4 часа)

Топик был перенесен из форума Мультфильмы (Трюм) в форум Новинки (HD|DVD|BD|TV|SAT|PDTV| - Rips)

erchine
 

Jek@

Легенда

Пост 17-Янв-2013 06:07 (спустя 18 часов)

[Q] 

.
[Профиль]  [ЛС] 

russ26

Штурман

Пост 17-Янв-2013 13:31 (спустя 7 часов)

[Q] 

[Профиль]  [ЛС] 

rusnak777

Лоцман

Пост 17-Янв-2013 14:34 (спустя 1 час 3 минуты)

[Q] 

[Профиль]  [ЛС] 

Shuldiner

Шкипер

476

Пост 17-Янв-2013 14:56 (спустя 22 минуты)

[Q] 

что-то не понравился((((
предыдущие поярче будут!!!
[Профиль]  [ЛС] 

KOLBASTER S

Морской Волк

Пост 19-Янв-2013 22:04 (спустя 2 дня 7 часов)

[Q] 

[Профиль]  [ЛС] 

allexxxv

Морской Волк

Пост 23-Янв-2013 19:42 (спустя 3 дня)

[Q] 

Спасибо!
[Профиль]  [ЛС] 

EugeniusIII

Штурман

Пост 07-Фев-2013 00:00 (спустя 14 дней)

[Q] 

Сейчас заценим. Спасибо!
[Профиль]  [ЛС] 

westup

Штурман

Пост 07-Фев-2013 00:02 (спустя 2 минуты)

[Q] 


_________________
[Профиль]  [ЛС] 

Grand Zero

Морской Волк

Пост 09-Апр-2014 22:04 (спустя 1 год 2 месяца)

[Q] 

класс!!!!!!!!!!!!!!
[Профиль]  [ЛС] 
Показать сообщения:    
Ответить на тему

Текущее время: Сегодня 03:07

Часовой пояс: GMT + 4



Вы не можете начинать темы
Вы не можете отвечать на сообщения
Вы не можете редактировать свои сообщения
Вы не можете удалять свои сообщения
Вы не можете голосовать в опросах
Вы не можете прикреплять файлы к сообщениям
Вы не можете скачивать файлы

▼ Вниз