ML
     
  Уважаемый Гость!
Вы можете поддержать проект и зарегистрироваться у наших партнеров - онлайн-стратегия MyLands. При регистрации в игре Вы получите код, который сможете активировать после регистрации на pirat.ca и получить 1000 дублонов.

Ваш код:
e6008d9811a0b6a1393c3dc51ecd7bc35637bc21
 
     

Снежная королева (Максим Свешников, Владлен Барбэ) [2012 г., Mультфильм, Фэнтези, Приключения, Семейный, HDRip]

Ответить на тему
 
Автор
Сообщение

Пост 03-Фев-2013 20:46

[Q] 

Jigsaw

 
-Снежная королева -- Производство: Россия / Инлэй Фильм, Wizart Animation
Режиссер: Максим Свешников, Владлен Барбэ
Жанр: Mультфильм, Фэнтези, Приключения, Семейный
Год выпуска: 2012 г.
Продолжительность: 01:16:52
Мировая премьера: 1 января 2013
Российская премьера: 31 декабря 2012, «Bazelevs Distribution»
Перевод: Не требуется
Роли озвучивали: Иван Охлобыстин, Нюша Шурочкина (Герда), Анна Ардова, Рамиля Искандер, Дмитрий Нагиев, Лиза Арзамасова, Галина Тюнина, Юрий Стоянов, Людмила Артемьева, Михаил Тихонов-Описание: В стремлении сотворить Новый мир — холодный и практичный, где четкость линий призвана заменить эмоции, а северный ветер должен остудить людские души, Снежная Королева избавляется от всех представителей творческих профессий. Маленькой и смелой Герде, отправившейся в опасное путешествие, чтобы спасти своего брата Кая, предстоит столкнуться с этим холодным миром Снежной Королевы. Преодолевая все сложности и преграды на пути к своей цели, Герда не только обретает семью, но и веру в себя, находит поддержку новых друзей.- -Качество видео: HDRip
Формат видео: AVI
Видео кодек: XviD
Аудио кодек: AC3
Видео: MPEG4, XviD, 720x400 (16:9), 24.000 fps, 2270 Kbps (0.313 bit/pixel)
Аудио: Rus: AC-3, 48.0 KHz, 6 ch, 448 Kbps, CBR
Cубтитры: отсутствуют
Общее
Полное имя : D:\Snezhnaja.koroleva_HDRip[pirat.ca].avi
Формат : AVI
Формат/Информация : Audio Video Interleave
Размер файла : 1,45 Гбайт
Продолжительность : 1 ч. 16 м.
Общий поток : 2728 Кбит/сек
Название фильма : Snezhnaja.koroleva_HDRip[pirat.ca]
Программа кодирования : VirtualDubMod 1.5.10.2 (build 2540/release)
Формат оригинала/Имя : Movie
Правообладатель : pirat.ca
Видео
Идентификатор : 0
Формат : MPEG-4 Visual
Профиль формата : Advanced [email protected]
Параметр BVOP формата : 1
Параметр QPel формата : Нет
Параметр GMC формата : Без точки перехода
Параметр матрицы формата : Выборочная
Идентификатор кодека : XVID
Идентификатор кодека/Подсказка : XviD
Продолжительность : 1 ч. 16 м.
Битрейт : 2270 Кбит/сек
Ширина : 720 пикселей
Высота : 400 пикселей
Соотношение сторон : 16:9
Частота кадров : 24,000 кадра/сек
Цветовое пространство : YUV
Субдискретизация насыщенности : 4:2:0
Битовая глубина : 8 бит
Тип развёртки : Прогрессивная
Метод сжатия : С потерями
Бит/(Пиксели*Кадры) : 0.328
Размер потока : 1,21 Гбайт (83%)
Библиотека кодирования : XviD 1.2.1 (UTC 2008-12-04)
Аудио
Идентификатор : 1
Формат : AC-3
Формат/Информация : Audio Coding 3
Расширение режима : CM (complete main)
Параметр Endianness формата : Big
Идентификатор кодека : 2000
Продолжительность : 1 ч. 16 м.
Вид битрейта : Постоянный
Битрейт : 448 Кбит/сек
Каналы : 6 каналов
Расположение каналов : Front: L C R, Side: L R, LFE
Частота : 48,0 КГц
Битовая глубина : 16 бит
Метод сжатия : С потерями
Размер потока : 244 Мбайт (16%)
Выравнивание : Разделение по промежуткам
Продолжительность промежутка : 42 мс. (1,00 видеокадр)
Время предзагрузки промежутка : 500 мс.
- -
Download / Скачать

Хотите скачать бесплатно? Зарегистрируйтесь на сайте (ссылка на регистрацию). Pirat.ca - самый быстрый торрент трекер в рунете!

Как скачивать  ·   Что такое торрент  ·   Рейтинг и ограничения

Пост 03-Фев-2013 21:35 (спустя 48 минут)

Топик был перенесен из форума Мультфильмы (Трюм) в форум Новинки (HD|DVD|BD|TV|SAT|PDTV| - Rips)

erchine
 

TOR-rb

Шкипер

Пост 04-Фев-2013 19:16 (спустя 22 часа)

[Q] 

Спасибо за оперативность ! ! ! Племяшка будет смотреть не отрываясь... да кого я обманываю, я тоже ))) СПАСИБО и Бочку в трюм ! ! !
[Профиль]  [ЛС] 

Jigsaw ®

Пост 04-Фев-2013 21:12 (спустя 1 час 56 минут)

[Q] 

TOR-rb, az Вам спасибо.
 

aleks77l

Морской Волк

Пост 06-Фев-2013 17:12 (спустя 1 день 19 часов)

[Q] 

СЫН БУДЕТ РАД bp bp bp
[Профиль]  [ЛС] 

a_lex-78

Штурман

Пост 06-Фев-2013 17:25 (спустя 12 минут)

[Q] 

Забираю.Спасибо
[Профиль]  [ЛС] 

g.g.s.

Морской Волк

Пост 07-Фев-2013 18:58 (спустя 1 день 1 час)

[Q] 

[Профиль]  [ЛС] 

oldrevan

Шкипер

Пост 08-Фев-2013 00:19 (спустя 5 часов)

[Q] 

[Профиль]  [ЛС] 

Zolton

Шкипер

Пост 27-Фев-2013 22:05 (спустя 19 дней)

[Q] 

[Профиль]  [ЛС] 

ursus

Морской Волк

Пост 28-Фев-2013 14:03 (спустя 15 часов)

[Q] 

[Профиль]  [ЛС] 

koolega77

Морской Волк

Пост 02-Мар-2013 11:37 (спустя 1 день 21 час)

[Q] 

какие отзывы + ИЛИ - ?
[Профиль]  [ЛС] 

Jigsaw ®

Пост 02-Мар-2013 16:51 (спустя 5 часов)

[Q] 

koolega77, "±" dj ag
 

cssergey

Корсар

Пост 02-Мар-2013 21:41 (спустя 4 часа)

[Q] 

[Профиль]  [ЛС] 

butik

Шкипер

Пост 02-Мар-2013 23:50 (спустя 2 часа 8 минут)

[Q] 

[Профиль]  [ЛС] 

Billy Bones

Шкипер

Пост 11-Мар-2013 18:48 (спустя 8 дней)

[Q] 

посмотрим
[Профиль]  [ЛС] 

anuta458

Лоцман

Пост 15-Мар-2013 20:08 (спустя 4 дня)

[Q] 


_________________
=)
[Профиль]  [ЛС] 

des

Морской Волк

Пост 31-Мар-2013 16:02 (спустя 15 дней)

[Q] 

[Профиль]  [ЛС] 

S_N_A_K_E

Флибустьер

Пост 13-Апр-2013 19:28 (спустя 13 дней)

[Q] 

[Профиль]  [ЛС] 

dido51

Морской Волк

Пост 20-Апр-2013 10:25 (спустя 6 дней)

[Q] 

[Профиль]  [ЛС] 

Вут

Морской Волк

72

Пост 23-Май-2013 08:49 (спустя 1 месяц 2 дня)

[Q] 

Спасибо!
[Профиль]  [ЛС] 

andreks

Шкипер

Пост 09-Июн-2013 19:29 (спустя 17 дней)

[Q] 

[Профиль]  [ЛС] 

_Marks_

Флибустьер

Пост 30-Июн-2013 08:54 (спустя 20 дней)

[Q] 

[Профиль]  [ЛС] 

Витаминчик

Юнга

Пост 14-Июл-2013 23:23 (спустя 14 дней)

[Q] 

[Профиль]  [ЛС] 

Alex Yz

Гроза морей

Пост 24-Авг-2013 20:44 (спустя 1 месяц 9 дней)

[Q] 

Спасибо!!!!
Троль в озвучке Охлобыстина это отлично!!! !COOL! Раздающему респект! Пиратка рулез!!! Лови бочку
[Профиль]  [ЛС] 

Platina-18

Лоцман

Пост 26-Дек-2014 17:36 (спустя 1 год 4 месяца)

[Q] 

Спасибо!!! Лови бочку Спасибо!!!!!!!!!!!!!!!!!!!!!!!!!!
[Профиль]  [ЛС] 

Анна 341662

Корсар

11

Пост 14-Фев-2015 15:28 (спустя 1 месяц 18 дней)

[Q] 

Кто смотрел как фильм? вчера посмотрела вторую часть вообще не понравилось, теперь думаю стоит ли смотреть первую)
[Профиль]  [ЛС] 
Показать сообщения:    
Ответить на тему

Текущее время: Сегодня 02:02

Часовой пояс: GMT + 4



Вы не можете начинать темы
Вы не можете отвечать на сообщения
Вы не можете редактировать свои сообщения
Вы не можете удалять свои сообщения
Вы не можете голосовать в опросах
Вы не можете прикреплять файлы к сообщениям
Вы не можете скачивать файлы

▼ Вниз