ML
     
  Уважаемый Гость!
Вы можете поддержать проект и зарегистрироваться у наших партнеров - онлайн-стратегия MyLands. При регистрации в игре Вы получите код, который сможете активировать после регистрации на pirat.ca и получить 1000 дублонов.

Ваш код:
fcd618d94adc1456bccbde5047c9cd0930e4ae4d
 
     

Печать царя Соломона (Владлен Барбэ) [2012 г., мультфильм, приключения, WEB-DLRip]

Ответить на тему
 
Автор
Сообщение

Пост 04-Авг-2013 13:31

[Q] 

ara1205

-Печать царя Соломона-- Производство: Россия
Год выпуска: 2012 г.
Жанр: мультфильм, приключения
Продолжительность: 01:15:22-Режиссер: Владлен Барбэ-В ролях: Дмитрий Дюжев, Эдуард Радзюкевич, Владимир Долинский, Александр Головин-Описание: Много веков назад, во времена своего правления, царь Соломон прогневался на могущественного джинна Юсуфа и с помощью колдовства заковал его в глиняный сосуд, скрепив заклятье своим магическим перстнем.
Прошли годы, сменились эпохи, и джинн оказывается на свободе в современной Москве. По невероятному стечению обстоятельств из плена его спасли юный Гекльберри Финн со своим другом, беглым рабом Джимом, силой магии также переместившиеся из Америки XIX века на улицы современного мегаполиса.
Но на этом приключения героев не заканчиваются. Сила перстня столь велика, что сквозь пространство и время Юсуфа преследует древний демон Кишкаш, продолжающий исполнять волю Соломона. Однако, истинная его цель заключается в стремлении обрести могущественный артефакт царя, чтобы погрузить мир в вечную тьму и хаос.
Время решающей битвы стремительно приближается…- -Качество видео: WEB-DLRip
Контейнер: AVI
Видео кодек: XviD
Аудио кодек: MP3
Видео: 688x368, 25 fps, 1243 kbps avg, 0.196 bit/pixel
Аудио: 48 kHz, 2 ch, 128 kbps
Cубтитры: отсутствуют-
Общее
Полное имя : C:\Users\Ромик\Pictures\Заказ\Печать царя Соломона\Pechat.Carya.Solomona.2012.WEBDLRip.745Mb.[pirat.ca].avi
Формат : AVI
Формат/Информация : Audio Video Interleave
Размер файла : 744 Мбайт
Продолжительность : 1 ч. 15 м.
Общий поток : 1381 Кбит/сек
Название фильма : Pechat.Carya.Solomona.2012.WEBDLRip.745Mb.[pirat.ca]
Программа кодирования : VirtualDubMod 1.5.10.2 (build 2540/release)
Видео
Идентификатор : 0
Формат : MPEG-4 Visual
Профиль формата : Advanced [email protected]
Параметр BVOP формата : 2
Параметр QPel формата : Нет
Параметр GMC формата : Без точки перехода
Параметр матрицы формата : Default (MPEG)
Идентификатор кодека : XVID
Идентификатор кодека/Подсказка : XviD
Продолжительность : 1 ч. 15 м.
Битрейт : 1243 Кбит/сек
Ширина : 688 пикселей
Высота : 368 пикселей
Соотношение сторон : 1,85:1
Частота кадров : 25,000 кадров/сек
Цветовое пространство : YUV
Субдискретизация насыщенности : 4:2:0
Битовая глубина : 8 бит
Тип развёртки : Прогрессивная
Метод сжатия : С потерями
Бит/(Пиксели*Кадры) : 0.196
Размер потока : 670 Мбайт (90%)
Библиотека кодирования : XviD 1.2.0.dev47 (UTC 2006-11-01)
Аудио
Идентификатор : 1
Формат : MPEG Audio
Версия формата : Version 1
Профиль формата : Layer 3
Идентификатор кодека : 55
Идентификатор кодека/Подсказка : MP3
Продолжительность : 1 ч. 15 м.
Вид битрейта : Постоянный
Битрейт : 128 Кбит/сек
Каналы : 2 канала
Частота : 48,0 КГц
Метод сжатия : С потерями
Размер потока : 69,0 Мбайт (9%)
Выравнивание : Соединение по промежуткам
Продолжительность промежутка : 40 мс. (1,00 видеокадр)
Время предзагрузки промежутка : 504 мс.
Библиотека кодирования : LAMELAME_MAJOR_VERSI
-
-
-
Download / Скачать

Хотите скачать бесплатно? Зарегистрируйтесь на сайте (ссылка на регистрацию). Pirat.ca - самый быстрый торрент трекер в рунете!

Как скачивать  ·   Что такое торрент  ·   Рейтинг и ограничения

dimonpa

Гроза морей

Пост 04-Авг-2013 17:52 (спустя 4 часа)

[Q] 

Автору респект!!!
[Профиль]  [ЛС] 

Olegarkh73

Корсар

240

Пост 04-Авг-2013 19:27 (спустя 1 час 34 минуты)

[Q] 

Лови бочку Спасибо!!!
[Профиль]  [ЛС] 

ara1205 ®

69742

Пост 05-Авг-2013 22:12 (спустя 1 день 2 часа)

[Q] 

Ну и кто смотрел? Как сие творение?
[Профиль]  [ЛС] 

kondraa

Лоцман

Пост 06-Авг-2013 06:41 (спустя 8 часов)

[Q] 

В отзывах говорят, что "русские аниматоры" опять провалились.
[Профиль]  [ЛС] 

Sector_X

Гроза морей

309

Пост 06-Авг-2013 18:14 (спустя 11 часов)

[Q] 

по скринам видно что Отказать но автору Спасибо!!!

_________________
[Профиль]  [ЛС] 

polozm

Легенда

Пост 08-Авг-2013 09:46 (спустя 1 день 15 часов)

[Q] 

спасибо конечно WTF!

_________________
mac mini -2.0 GHz Intel Core i7/ 8 GB DDR3. /Intel HD 3000(512mb)OS X 10.9 Mavericks
[Профиль]  [ЛС] 
Показать сообщения:    
Ответить на тему

Текущее время: Сегодня 12:50

Часовой пояс: GMT + 4



Вы не можете начинать темы
Вы не можете отвечать на сообщения
Вы не можете редактировать свои сообщения
Вы не можете удалять свои сообщения
Вы не можете голосовать в опросах
Вы не можете прикреплять файлы к сообщениям
Вы не можете скачивать файлы

▼ Вниз